<?xml version="1.0" standalone="no"?> 
<!DOCTYPE svg PUBLIC "-//W3C//DTD SVG 1.1//EN" "http://www.w3.org/Graphics/SVG/1.1/DTD/svg11.dtd" >
<svg xmlns="http://www.w3.org/2000/svg">
<defs>
  <font id="icons" horiz-adv-x="24">
    <font-face font-family="icons"
      units-per-em="1000" ascent="872"
      descent="128" />
    <missing-glyph horiz-adv-x="0" />
    <glyph glyph-name="add"
      unicode="&#xF101;"
      horiz-adv-x="1000" d=" M500 705.3333333333334A41.66666666666666 41.66666666666666 0 0 0 541.6666666666666 663.6666666666667V413.6666666666667H791.6666666666666A41.66666666666666 41.66666666666666 0 1 0 791.6666666666666 330.3333333333334H541.6666666666666V80.3333333333334A41.66666666666666 41.66666666666666 0 1 0 458.3333333333333 80.3333333333334V330.3333333333334H208.3333333333333A41.66666666666666 41.66666666666666 0 1 0 208.3333333333333 413.6666666666667H458.3333333333333V663.6666666666667A41.66666666666666 41.66666666666666 0 0 0 500 705.3333333333334z" />
    <glyph glyph-name="archive"
      unicode="&#xF102;"
      horiz-adv-x="1000" d=" M83.3333333333333 663.6666666666667A83.33333333333331 83.33333333333331 0 0 0 166.6666666666667 747H833.3333333333333A83.33333333333331 83.33333333333331 0 0 0 916.6666666666666 663.6666666666667V580.3333333333334A83.33333333333331 83.33333333333331 0 0 0 874.2916666666666 507.75C874.7499999999999 504.25 875 500.6666666666666 875 497V80.3333333333334A83.33333333333331 83.33333333333331 0 0 0 791.6666666666666 -3H208.3333333333333A83.33333333333331 83.33333333333331 0 0 0 125 80.3333333333334V497C125 500.625 125.25 504.25 125.7083333333333 507.75A83.33333333333331 83.33333333333331 0 0 0 83.3333333333333 580.3333333333334V663.6666666666667zM833.3333333333333 580.3333333333334V663.6666666666667H166.6666666666667V580.3333333333334H833.3333333333333zM208.3333333333333 497V80.3333333333334H791.6666666666666V497H208.3333333333333zM333.3333333333333 372A41.66666666666666 41.66666666666666 0 0 0 375 413.6666666666667H625A41.66666666666666 41.66666666666666 0 1 0 625 330.3333333333334H375A41.66666666666666 41.66666666666666 0 0 0 333.3333333333333 372z" />
    <glyph glyph-name="arrow-down"
      unicode="&#xF103;"
      horiz-adv-x="1000" d=" M500 705.3333333333334A41.66666666666666 41.66666666666666 0 0 0 541.6666666666666 663.6666666666667V180.9166666666668L720.5416666666666 359.7916666666668A41.66666666666666 41.66666666666666 0 0 0 779.4583333333334 300.8750000000001L529.4583333333334 50.875A41.66666666666666 41.66666666666666 0 0 0 470.5416666666667 50.875L220.5416666666667 300.875A41.66666666666666 41.66666666666666 0 1 0 279.4583333333334 359.7916666666667L458.3333333333333 180.9166666666668V663.6666666666667A41.66666666666666 41.66666666666666 0 0 0 500 705.3333333333334z" />
    <glyph glyph-name="arrow-left-down"
      unicode="&#xF104;"
      horiz-adv-x="1000" d=" M737.7916666666666 609.7916666666667A41.66666666666666 41.66666666666666 0 0 0 737.7916666666666 550.875L392.25 205.3333333333334H625A41.66666666666666 41.66666666666666 0 1 0 625 122H291.6666666666667A41.66666666666666 41.66666666666666 0 0 0 250 163.6666666666668V497A41.66666666666666 41.66666666666666 0 1 0 333.3333333333333 497V264.25L678.8749999999999 609.7916666666666A41.66666666666666 41.66666666666666 0 0 0 737.7916666666666 609.7916666666666z" />
    <glyph glyph-name="arrow-left-up"
      unicode="&#xF105;"
      horiz-adv-x="1000" d=" M333.3333333333333 479.7500000000001V247A41.66666666666666 41.66666666666666 0 1 0 250 247V580.3333333333334A41.66666666666666 41.66666666666666 0 0 0 291.6666666666667 622H625A41.66666666666666 41.66666666666666 0 1 0 625 538.6666666666667H392.25L737.7916666666666 193.1250000000001A41.66666666666666 41.66666666666666 0 0 0 678.8749999999999 134.2083333333334L333.3333333333333 479.7500000000001z" />
    <glyph glyph-name="arrow-left"
      unicode="&#xF106;"
      horiz-adv-x="1000" d=" M487.7916666666667 651.4583333333334A41.66666666666666 41.66666666666666 0 0 0 487.7916666666667 592.5416666666667L308.9166666666667 413.6666666666667H791.6666666666666A41.66666666666666 41.66666666666666 0 1 0 791.6666666666666 330.3333333333334H308.9166666666667L487.7916666666667 151.4583333333334A41.66666666666666 41.66666666666666 0 0 0 428.875 92.5416666666666L178.875 342.5416666666667A41.66666666666666 41.66666666666666 0 0 0 178.875 401.4583333333333L428.875 651.4583333333333A41.66666666666666 41.66666666666666 0 0 0 487.7916666666667 651.4583333333333z" />
    <glyph glyph-name="arrow-right-down"
      unicode="&#xF107;"
      horiz-adv-x="1000" d=" M262.2083333333333 609.7916666666667A41.66666666666666 41.66666666666666 0 0 0 321.125 609.7916666666667L666.6666666666666 264.25V497A41.66666666666666 41.66666666666666 0 1 0 750 497V163.6666666666668A41.66666666666666 41.66666666666666 0 0 0 708.3333333333333 122H375A41.66666666666666 41.66666666666666 0 1 0 375 205.3333333333334H607.75L262.2083333333333 550.875A41.66666666666666 41.66666666666666 0 0 0 262.2083333333333 609.7916666666667z" />
    <glyph glyph-name="arrow-right-up"
      unicode="&#xF108;"
      horiz-adv-x="1000" d=" M333.3333333333333 580.3333333333334A41.66666666666666 41.66666666666666 0 0 0 375 622H708.3333333333333A41.66666666666666 41.66666666666666 0 0 0 750 580.3333333333334V247A41.66666666666666 41.66666666666666 0 1 0 666.6666666666666 247V479.7500000000001L321.125 134.2083333333334A41.66666666666666 41.66666666666666 0 0 0 262.2083333333334 193.1250000000001L607.75 538.6666666666667H375A41.66666666666666 41.66666666666666 0 0 0 333.3333333333333 580.3333333333334z" />
    <glyph glyph-name="arrow-right"
      unicode="&#xF109;"
      horiz-adv-x="1000" d=" M512.2083333333333 651.4583333333334A41.66666666666666 41.66666666666666 0 0 0 571.1249999999999 651.4583333333334L821.125 401.4583333333334A41.66666666666666 41.66666666666666 0 0 0 821.125 342.5416666666668L571.125 92.5416666666666A41.66666666666666 41.66666666666666 0 0 0 512.2083333333334 151.4583333333334L691.0833333333333 330.3333333333334H208.3333333333333A41.66666666666666 41.66666666666666 0 1 0 208.3333333333333 413.6666666666667H691.0833333333333L512.2083333333333 592.5416666666667A41.66666666666666 41.66666666666666 0 0 0 512.2083333333333 651.4583333333334z" />
    <glyph glyph-name="arrow-up"
      unicode="&#xF10A;"
      horiz-adv-x="1000" d=" M500 705.3333333333334A41.66666666666666 41.66666666666666 0 0 0 529.4583333333334 693.125L779.4583333333334 443.1250000000001A41.66666666666666 41.66666666666666 0 0 0 720.5416666666666 384.2083333333335L541.6666666666666 563.0833333333334V80.3333333333334A41.66666666666666 41.66666666666666 0 1 0 458.3333333333333 80.3333333333334V563.0833333333334L279.4583333333333 384.2083333333333A41.66666666666666 41.66666666666666 0 0 0 220.5416666666667 443.125L470.5416666666666 693.125A41.66666666666666 41.66666666666666 0 0 0 500 705.3333333333334z" />
    <glyph glyph-name="attachment"
      unicode="&#xF10B;"
      horiz-adv-x="1000" d=" M810.9583333333334 639.6666666666667C782.2916666666667 670.9166666666667 730.5833333333334 672.8333333333334 696.125 638.375L358.625 300.8750000000001C349.875 292.125 349.875 281.0416666666668 358.625 272.2916666666668C367.3750000000001 263.5416666666668 378.4583333333334 263.5416666666668 387.2083333333334 272.2916666666668L666.375 551.4583333333335A41.66666666666666 41.66666666666666 0 0 0 725.2916666666667 492.5416666666667L446.1250000000002 213.3750000000001A102.08333333333331 102.08333333333331 0 0 0 299.7083333333336 213.3750000000001A102.08333333333331 102.08333333333331 0 0 0 299.7083333333336 359.7916666666668L637.2083333333335 697.2916666666667C702.5000000000001 762.625 808.6666666666669 764.75 871.7916666666669 696.6666666666667C936.4583333333334 631.2916666666667 938.3333333333336 525.6666666666667 870.5416666666667 462.7916666666667L475.2916666666668 67.5416666666666C384.0416666666668 -23.7083333333334 240.9583333333335 -23.7083333333334 149.7083333333335 67.5416666666666C58.4583333333335 158.7916666666666 58.4583333333335 301.8749999999999 149.7083333333335 393.125L487.2083333333334 730.6249999999999A41.66666666666666 41.66666666666666 0 0 0 546.1250000000001 671.7083333333333L208.6250000000001 334.2083333333333C149.8750000000001 275.4583333333333 149.8750000000001 185.2083333333334 208.6250000000001 126.4583333333334C267.3750000000001 67.7083333333334 357.6250000000001 67.7083333333334 416.3750000000001 126.4583333333334L812.2083333333334 522.2916666666667L813.5 523.5416666666666C844.75 552.1666666666666 846.6666666666666 603.9166666666666 812.2083333333334 638.375A44.166666666666664 44.166666666666664 0 0 0 810.9583333333334 639.6666666666666z" />
    <glyph glyph-name="backspace"
      unicode="&#xF10C;"
      horiz-adv-x="1000" d=" M737.7916666666666 526.4583333333334A41.66666666666666 41.66666666666666 0 0 0 737.7916666666666 467.5416666666667L642.25 372L737.7916666666666 276.4583333333334A41.66666666666666 41.66666666666666 0 0 0 678.8749999999999 217.5416666666668L583.3333333333333 313.0833333333334L487.7916666666667 217.5416666666666A41.66666666666666 41.66666666666666 0 0 0 428.875 276.4583333333334L524.4166666666666 372L428.875 467.5416666666667A41.66666666666666 41.66666666666666 0 1 0 487.7916666666666 526.4583333333333L583.3333333333333 430.9166666666667L678.8749999999999 526.4583333333334A41.66666666666666 41.66666666666666 0 0 0 737.7916666666666 526.4583333333334z M916.6666666666666 663.6666666666667A41.66666666666666 41.66666666666666 0 0 1 875 705.3333333333334H394.1666666666667A83.33333333333331 83.33333333333331 0 0 1 330.875 676.25L116.625 426.25A83.33333333333331 83.33333333333331 0 0 1 116.625 317.75L330.875 67.7500000000001A83.33333333333331 83.33333333333331 0 0 1 394.1666666666667 38.6666666666667H875A41.66666666666666 41.66666666666666 0 0 1 916.6666666666666 80.3333333333334V663.6666666666667zM833.3333333333333 122H394.1666666666667L179.875 372L394.1666666666667 622H833.3333333333333V122z" />
    <glyph glyph-name="ban"
      unicode="&#xF10D;"
      horiz-adv-x="1000" d=" M236.6666666666667 576.4166666666667A333.33333333333326 333.33333333333326 0 0 1 704.375 108.6666666666667L236.6666666666667 576.4166666666667zM295.5833333333333 635.3333333333334L763.3333333333333 167.5833333333334A333.33333333333326 333.33333333333326 0 0 1 295.5833333333333 635.3333333333334zM83.3333333333333 372C83.3333333333333 602.125 269.875 788.6666666666666 500 788.6666666666666S916.6666666666666 602.125 916.6666666666666 372S730.125 -44.6666666666666 500 -44.6666666666666S83.3333333333333 141.875 83.3333333333333 372z" />
    <glyph glyph-name="bar-chart-alt"
      unicode="&#xF10E;"
      horiz-adv-x="1000" d=" M500 705.3333333333334A41.66666666666666 41.66666666666666 0 0 0 541.6666666666666 663.6666666666667V80.3333333333334A41.66666666666666 41.66666666666666 0 1 0 458.3333333333333 80.3333333333334V663.6666666666667A41.66666666666666 41.66666666666666 0 0 0 500 705.3333333333334zM708.3333333333333 538.6666666666667A41.66666666666666 41.66666666666666 0 0 0 750 497V80.3333333333334A41.66666666666666 41.66666666666666 0 1 0 666.6666666666666 80.3333333333334V497A41.66666666666666 41.66666666666666 0 0 0 708.3333333333333 538.6666666666667zM291.6666666666667 372A41.66666666666666 41.66666666666666 0 0 0 333.3333333333333 330.3333333333334V80.3333333333334A41.66666666666666 41.66666666666666 0 1 0 250 80.3333333333334V330.3333333333334A41.66666666666666 41.66666666666666 0 0 0 291.6666666666667 372z" />
    <glyph glyph-name="bar-chart"
      unicode="&#xF10F;"
      horiz-adv-x="1000" d=" M125 663.6666666666667A83.33333333333331 83.33333333333331 0 0 0 208.3333333333333 747H791.6666666666666A83.33333333333331 83.33333333333331 0 0 0 875 663.6666666666667V80.3333333333334A83.33333333333331 83.33333333333331 0 0 0 791.6666666666666 -3H208.3333333333333A83.33333333333331 83.33333333333331 0 0 0 125 80.3333333333334V663.6666666666667zM791.6666666666666 663.6666666666667H208.3333333333333V80.3333333333334H791.6666666666666V663.6666666666667zM500 580.3333333333334A41.66666666666666 41.66666666666666 0 0 0 541.6666666666666 538.6666666666667V205.3333333333334A41.66666666666666 41.66666666666666 0 1 0 458.3333333333333 205.3333333333334V538.6666666666667A41.66666666666666 41.66666666666666 0 0 0 500 580.3333333333334zM666.6666666666666 497A41.66666666666666 41.66666666666666 0 0 0 708.3333333333333 455.3333333333334V205.3333333333334A41.66666666666666 41.66666666666666 0 1 0 625 205.3333333333334V455.3333333333334A41.66666666666666 41.66666666666666 0 0 0 666.6666666666666 497zM333.3333333333333 413.6666666666667A41.66666666666666 41.66666666666666 0 0 0 375 372V205.3333333333334A41.66666666666666 41.66666666666666 0 1 0 291.6666666666667 205.3333333333334V372A41.66666666666666 41.66666666666666 0 0 0 333.3333333333333 413.6666666666667z" />
    <glyph glyph-name="board"
      unicode="&#xF110;"
      horiz-adv-x="1000" d=" M83.3333333333333 663.6666666666667A83.33333333333331 83.33333333333331 0 0 0 166.6666666666667 747H833.3333333333333A83.33333333333331 83.33333333333331 0 0 0 916.6666666666666 663.6666666666667V80.3333333333334A83.33333333333331 83.33333333333331 0 0 0 833.3333333333333 -3H166.6666666666667A83.33333333333331 83.33333333333331 0 0 0 83.3333333333333 80.3333333333334V663.6666666666667zM333.3333333333333 663.6666666666667H166.6666666666667V80.3333333333334H333.3333333333333V663.6666666666667zM416.6666666666667 663.6666666666667V80.3333333333334H583.3333333333333V663.6666666666667H416.6666666666667zM666.6666666666666 663.6666666666667V80.3333333333334H833.3333333333333V663.6666666666667H666.6666666666666z" />
    <glyph glyph-name="bold"
      unicode="&#xF111;"
      horiz-adv-x="1000" d=" M291.6666666666667 705.3333333333334A41.66666666666666 41.66666666666666 0 0 1 250 663.6666666666667V80.3333333333334A41.66666666666666 41.66666666666666 0 0 1 291.6666666666667 38.6666666666667H562.5A187.49999999999997 187.49999999999997 0 0 1 626.875 402.3333333333334A187.49999999999997 187.49999999999997 0 0 1 479.1666666666666 705.3333333333334H291.6666666666667zM479.1666666666666 413.6666666666667H333.3333333333333V622H479.1666666666666A104.16666666666667 104.16666666666667 0 0 0 479.1666666666666 413.6666666666667zM333.3333333333333 330.3333333333334H562.5A104.16666666666667 104.16666666666667 0 0 0 562.5 122H333.3333333333333V330.3333333333334z" />
    <glyph glyph-name="book"
      unicode="&#xF112;"
      horiz-adv-x="1000" d=" M166.6666666666667 595.625C172.5 597.9583333333334 179.5 600.5416666666667 187.625 603.1666666666667A407.0833333333333 407.0833333333333 0 0 0 312.5 622A407.0833333333333 407.0833333333333 0 0 0 437.375 603.1666666666667C445.5 600.5416666666667 452.4999999999999 597.9583333333334 458.3333333333333 595.625V142.2916666666666A492.37499999999994 492.37499999999994 0 0 1 312.5 163.6666666666668C251.6666666666667 163.6666666666668 202.125 153.3333333333334 166.6666666666667 142.2916666666666V595.625zM500 668.4583333333334A385.70833333333326 385.70833333333326 0 0 1 463 682.5A490.37499999999994 490.37499999999994 0 0 1 312.5 705.3333333333334C248.9166666666667 705.3333333333334 197.7083333333333 694.0416666666667 162 682.5A370.37499999999994 370.37499999999994 0 0 1 120.2916666666667 666.2916666666666A246.0416666666666 246.0416666666666 0 0 1 105.4166666666667 658.7916666666667L104.375 658.2083333333334L104 658L103.875 657.9166666666667H103.8333333333333C103.75 657.8333333333334 93.5416666666667 651.7916666666667 103.75 657.8333333333334A41.66666666666666 41.66666666666666 0 0 1 83.3333333333333 622V80.3333333333334A41.66666666666666 41.66666666666666 0 0 1 146.25 44.5000000000001L146.0416666666667 44.3750000000001H146.0833333333333L146.1666666666666 44.4166666666667L146.2083333333333 44.4583333333335L147.75 45.2916666666669C149.2916666666666 46.1250000000001 151.8333333333333 47.3750000000002 155.3333333333333 49.0416666666669C162.4166666666666 52.2916666666667 173.25 56.8750000000001 187.625 61.5416666666669A407.0833333333333 407.0833333333333 0 0 0 312.5 80.3333333333334A407.0833333333333 407.0833333333333 0 0 0 437.375 61.5416666666667A287.5 287.5 0 0 0 469.6666666666666 49.0416666666666A165.66666666666669 165.66666666666669 0 0 0 478.9583333333334 44.3750000000001M478.9583333333334 44.3750000000001H478.9166666666667L478.8333333333334 44.4166666666667L478.7916666666667 44.4583333333335C491.8750000000001 36.7500000000002 508.1250000000001 36.7500000000002 521.2083333333334 44.4583333333335L522.7500000000001 45.2916666666669C524.2916666666667 46.1250000000001 526.8333333333335 47.3750000000002 530.3333333333335 49.0416666666669A287.5 287.5 0 0 0 562.6250000000001 61.5416666666669A407.0833333333333 407.0833333333333 0 0 0 687.5 80.3333333333334A407.0833333333333 407.0833333333333 0 0 0 812.375 61.5416666666667A287.5 287.5 0 0 0 844.6666666666665 49.0416666666666A165.66666666666669 165.66666666666669 0 0 0 853.7916666666666 44.4583333333334A41.66666666666666 41.66666666666666 0 0 1 916.6666666666666 80.3333333333334V622A41.66666666666666 41.66666666666666 0 0 1 896.25 657.8333333333334L896.1666666666667 657.875H896.125L896 658L895.5833333333333 658.2083333333334L894.5833333333333 658.7916666666667A245.12499999999997 245.12499999999997 0 0 1 879.7083333333333 666.2916666666667A370.7083333333333 370.7083333333333 0 0 1 838.0416666666666 682.5A490.37499999999994 490.37499999999994 0 0 1 687.5 705.3333333333334C623.9583333333333 705.3333333333334 572.7083333333334 694.0416666666667 537 682.5A379.6666666666666 379.6666666666666 0 0 1 500 668.4583333333334M833.3333333333333 595.625V142.2916666666666A492.37499999999994 492.37499999999994 0 0 1 687.5 163.6666666666668C626.6666666666666 163.6666666666668 577.1249999999999 153.3333333333334 541.6666666666666 142.2916666666666V595.625C547.5 597.9583333333334 554.5 600.5416666666667 562.625 603.1666666666667A407.0833333333333 407.0833333333333 0 0 0 687.5 622A407.0833333333333 407.0833333333333 0 0 0 812.375 603.1666666666667C820.5 600.5416666666667 827.4999999999999 597.9583333333334 833.3333333333333 595.625zM853.7499999999999 586.125L853.9583333333331 586.0416666666667H853.9166666666665L853.7916666666664 586.125zM853.7499999999999 44.4583333333334L853.9166666666666 44.3750000000001L853.8333333333334 44.4583333333334" />
    <glyph glyph-name="bookmark"
      unicode="&#xF113;"
      horiz-adv-x="1000" d=" M166.6666666666667 705.3333333333334A83.33333333333331 83.33333333333331 0 0 0 250 788.6666666666666H750A83.33333333333331 83.33333333333331 0 0 0 833.3333333333333 705.3333333333334V-3A41.66666666666666 41.66666666666666 0 0 0 767.4583333333333 -36.9166666666666L500 154.1250000000001L232.5416666666667 -36.9166666666666A41.66666666666666 41.66666666666666 0 0 0 166.6666666666667 -3V705.3333333333334zM750 705.3333333333334H250V77.9583333333333L475.7916666666667 239.2083333333334A41.66666666666666 41.66666666666666 0 0 0 524.2083333333333 239.2083333333334L750 78V705.3333333333334z" />
    <glyph glyph-name="calendar"
      unicode="&#xF114;"
      horiz-adv-x="1000" d=" M375 788.6666666666666A41.66666666666666 41.66666666666666 0 0 0 416.6666666666667 747V705.3333333333334H583.3333333333333V747A41.66666666666666 41.66666666666666 0 1 0 666.6666666666666 747V705.3333333333334H791.6666666666666A83.33333333333331 83.33333333333331 0 0 0 875 622V80.3333333333334A83.33333333333331 83.33333333333331 0 0 0 791.6666666666666 -3H208.3333333333333A83.33333333333331 83.33333333333331 0 0 0 125 80.3333333333334V622A83.33333333333331 83.33333333333331 0 0 0 208.3333333333333 705.3333333333334H333.3333333333333V747A41.66666666666666 41.66666666666666 0 0 0 375 788.6666666666666zM333.3333333333333 622H208.3333333333333V497H791.6666666666666V622H666.6666666666666V580.3333333333334A41.66666666666666 41.66666666666666 0 1 0 583.3333333333333 580.3333333333334V622H416.6666666666667V580.3333333333334A41.66666666666666 41.66666666666666 0 0 0 333.3333333333333 580.3333333333334V622zM791.6666666666666 413.6666666666667H208.3333333333333V80.3333333333334H791.6666666666666V413.6666666666667z" />
    <glyph glyph-name="call"
      unicode="&#xF115;"
      horiz-adv-x="1000" d=" M159.7083333333334 705.3333333333334H346.7916666666667L407.0833333333333 554.5833333333333L310.2083333333333 490A41.66666666666666 41.66666666666666 0 0 1 291.6666666666667 455.3333333333334C291.7916666666667 451.4166666666667 291.6666666666667 455.2916666666667 291.6666666666667 455.2916666666667V454.4166666666667A88.70833333333333 88.70833333333333 0 0 1 291.9166666666667 448.8333333333333C292.1666666666667 445.4166666666667 292.5833333333333 440.7916666666667 293.375 435.0833333333333C295 423.8333333333334 298.125 408.3333333333334 304.2083333333333 390.0833333333333C316.4583333333333 353.4166666666667 340.4583333333333 305.9583333333334 387.2083333333333 259.2083333333334C433.9583333333333 212.4583333333334 481.4166666666666 188.4583333333334 518.0416666666666 176.2083333333333C536.3333333333333 170.1249999999999 551.7916666666666 167.0416666666668 563.125 165.3749999999999A184.33333333333334 184.33333333333334 0 0 1 582.4166666666666 163.7083333333333L582.9583333333333 163.6666666666665H583.2916666666666S587.9583333333333 163.9166666666665 583.3333333333333 163.6666666666665A41.66666666666666 41.66666666666666 0 0 1 620.5833333333333 186.7083333333333L648.4999999999999 242.5416666666667L833.3333333333333 211.7083333333333V31.7083333333334C745.3749999999999 19 507.7916666666667 6.4583333333333 321.125 193.1249999999999C134.4583333333333 379.7916666666667 146.9583333333334 617.4166666666666 159.7083333333334 705.3333333333334zM378.0416666666667 435.0833333333333L453.3333333333333 485.25A83.33333333333331 83.33333333333331 0 0 1 484.4583333333333 585.5416666666667L424.1666666666667 736.2916666666666A83.33333333333331 83.33333333333331 0 0 1 346.7916666666667 788.6666666666666H157.5416666666667C119.6666666666667 788.6666666666666 84.0416666666667 762.375 77.8333333333333 721.2916666666667C63.6666666666667 627.875 44.4583333333333 351.9583333333333 262.2083333333333 134.2083333333334C479.9583333333333 -83.5416666666666 755.875 -64.2916666666666 849.2916666666666 -50.1666666666666C890.3749999999999 -43.9166666666667 916.6666666666666 -8.3333333333333 916.6666666666666 29.5416666666666V211.7083333333334A83.33333333333331 83.33333333333331 0 0 1 847.0416666666666 293.9166666666667L662.2083333333334 324.7083333333334A83.33333333333331 83.33333333333331 0 0 1 573.9583333333334 279.7916666666668L559.5416666666666 250.9166666666668A196.24999999999997 196.24999999999997 0 0 0 544.4166666666666 255.2916666666668C518.5833333333334 263.8750000000001 482.7083333333333 281.5416666666669 446.125 318.1250000000001C409.5416666666667 354.7083333333334 391.875 390.5833333333335 383.2916666666667 416.4583333333334A190.95833333333331 190.95833333333331 0 0 0 378.0833333333334 435.0833333333333z" />
    <glyph glyph-name="camera"
      unicode="&#xF116;"
      horiz-adv-x="1000" d=" M345.5416666666667 693.125A41.66666666666666 41.66666666666666 0 0 0 375 705.3333333333334H625A41.66666666666666 41.66666666666666 0 0 0 654.4583333333334 693.125L725.5833333333334 622H833.3333333333333A83.33333333333331 83.33333333333331 0 0 0 916.6666666666666 538.6666666666667V122A83.33333333333331 83.33333333333331 0 0 0 833.3333333333333 38.6666666666667H166.6666666666667A83.33333333333331 83.33333333333331 0 0 0 83.3333333333333 122V538.6666666666667A83.33333333333331 83.33333333333331 0 0 0 166.6666666666667 622H274.4166666666667L345.5416666666667 693.125zM392.25 622L321.125 550.875A41.66666666666666 41.66666666666666 0 0 0 291.6666666666667 538.6666666666667H166.6666666666667V122H833.3333333333333V538.6666666666667H708.3333333333333A41.66666666666666 41.66666666666666 0 0 0 678.8749999999999 550.875L607.75 622H392.25zM500 434.5A83.33333333333331 83.33333333333331 0 1 1 500 267.8333333333334A83.33333333333331 83.33333333333331 0 0 1 500 434.5zM333.3333333333333 351.1666666666668A166.66666666666663 166.66666666666663 0 1 0 666.6666666666666 351.1666666666668A166.66666666666663 166.66666666666663 0 0 0 333.3333333333333 351.1666666666668z" />
    <glyph glyph-name="caret-down"
      unicode="&#xF117;"
      horiz-adv-x="1000" d=" M708.3333333333333 455.3333333333334L500 205.3333333333334L291.6666666666667 455.3333333333334H708.3333333333333z" />
    <glyph glyph-name="caret-left"
      unicode="&#xF118;"
      horiz-adv-x="1000" d=" M583.3333333333333 163.6666666666668L333.3333333333333 372L583.3333333333333 580.3333333333334V163.6666666666668z" />
    <glyph glyph-name="caret-right"
      unicode="&#xF119;"
      horiz-adv-x="1000" d=" M416.6666666666667 580.3333333333334L666.6666666666666 372L416.6666666666667 163.6666666666668V580.3333333333334z" />
    <glyph glyph-name="caret-up"
      unicode="&#xF11A;"
      horiz-adv-x="1000" d=" M291.6666666666667 288.6666666666668L500 538.6666666666667L708.3333333333333 288.6666666666668H291.6666666666667z" />
    <glyph glyph-name="check"
      unicode="&#xF11B;"
      horiz-adv-x="1000" d=" M861 653.125A41.66666666666666 41.66666666666666 0 0 0 864.4583333333333 594.3333333333334L420.0416666666667 94.3333333333334A41.66666666666666 41.66666666666666 0 0 0 357.75 94.3333333333334L135.5416666666666 344.3333333333333A41.66666666666666 41.66666666666666 0 0 0 197.7916666666666 399.6666666666667L388.8749999999999 184.7083333333334L802.2083333333333 649.7083333333333A41.66666666666666 41.66666666666666 0 0 0 861 653.125z" />
    <glyph glyph-name="chevron-double-down"
      unicode="&#xF11C;"
      horiz-adv-x="1000" d=" M220.5416666666667 609.7916666666667A41.66666666666666 41.66666666666666 0 0 0 279.4583333333333 609.7916666666667L500 389.25L720.5416666666666 609.7916666666667A41.66666666666666 41.66666666666666 0 1 0 779.4583333333334 550.875L529.4583333333334 300.875A41.66666666666666 41.66666666666666 0 0 0 470.5416666666667 300.875L220.5416666666667 550.875A41.66666666666666 41.66666666666666 0 0 0 220.5416666666667 609.7916666666666zM220.5416666666667 359.7916666666668A41.66666666666666 41.66666666666666 0 0 0 279.4583333333333 359.7916666666668L500 139.2500000000001L720.5416666666666 359.7916666666668A41.66666666666666 41.66666666666666 0 0 0 779.4583333333334 300.8750000000001L529.4583333333334 50.875A41.66666666666666 41.66666666666666 0 0 0 470.5416666666667 50.875L220.5416666666667 300.875A41.66666666666666 41.66666666666666 0 0 0 220.5416666666667 359.7916666666667z" />
    <glyph glyph-name="chevron-double-left"
      unicode="&#xF11D;"
      horiz-adv-x="1000" d=" M737.7916666666666 651.4583333333334A41.66666666666666 41.66666666666666 0 0 0 737.7916666666666 592.5416666666667L517.25 372L737.7916666666666 151.4583333333334A41.66666666666666 41.66666666666666 0 0 0 678.8749999999999 92.5416666666666L428.875 342.5416666666667A41.66666666666666 41.66666666666666 0 0 0 428.875 401.4583333333333L678.8749999999999 651.4583333333333A41.66666666666666 41.66666666666666 0 0 0 737.7916666666666 651.4583333333333zM487.7916666666667 651.4583333333334A41.66666666666666 41.66666666666666 0 0 0 487.7916666666667 592.5416666666667L267.25 372L487.7916666666667 151.4583333333334A41.66666666666666 41.66666666666666 0 0 0 428.875 92.5416666666666L178.875 342.5416666666667A41.66666666666666 41.66666666666666 0 0 0 178.875 401.4583333333333L428.875 651.4583333333333A41.66666666666666 41.66666666666666 0 0 0 487.7916666666667 651.4583333333333z" />
    <glyph glyph-name="chevron-double-right"
      unicode="&#xF11E;"
      horiz-adv-x="1000" d=" M512.2083333333333 651.4583333333334A41.66666666666666 41.66666666666666 0 0 0 571.1249999999999 651.4583333333334L821.125 401.4583333333334A41.66666666666666 41.66666666666666 0 0 0 821.125 342.5416666666668L571.125 92.5416666666666A41.66666666666666 41.66666666666666 0 0 0 512.2083333333334 151.4583333333334L732.7499999999999 372L512.2083333333333 592.5416666666667A41.66666666666666 41.66666666666666 0 0 0 512.2083333333333 651.4583333333334zM262.2083333333333 651.4583333333334A41.66666666666666 41.66666666666666 0 0 0 321.125 651.4583333333334L571.1249999999999 401.4583333333334A41.66666666666666 41.66666666666666 0 0 0 571.1249999999999 342.5416666666668L321.125 92.5416666666666A41.66666666666666 41.66666666666666 0 0 0 262.2083333333333 151.4583333333334L482.75 372L262.2083333333333 592.5416666666667A41.66666666666666 41.66666666666666 0 0 0 262.2083333333333 651.4583333333334z" />
    <glyph glyph-name="chevron-double-up"
      unicode="&#xF11F;"
      horiz-adv-x="1000" d=" M470.5416666666666 693.125A41.66666666666666 41.66666666666666 0 0 0 529.4583333333333 693.125L779.4583333333334 443.1250000000001A41.66666666666666 41.66666666666666 0 0 0 720.5416666666666 384.2083333333335L500 604.75L279.4583333333333 384.2083333333333A41.66666666666666 41.66666666666666 0 0 0 220.5416666666667 443.125L470.5416666666666 693.125zM500 354.75L279.4583333333333 134.2083333333334A41.66666666666666 41.66666666666666 0 0 0 220.5416666666667 193.1250000000001L470.5416666666666 443.1250000000001A41.66666666666666 41.66666666666666 0 0 0 529.4583333333333 443.1250000000001L779.4583333333334 193.1250000000001A41.66666666666666 41.66666666666666 0 0 0 720.5416666666666 134.2083333333334L500 354.75z" />
    <glyph glyph-name="chevron-down"
      unicode="&#xF120;"
      horiz-adv-x="1000" d=" M220.5416666666667 484.7916666666667A41.66666666666666 41.66666666666666 0 0 0 279.4583333333333 484.7916666666667L500 264.25L720.5416666666666 484.7916666666667A41.66666666666666 41.66666666666666 0 1 0 779.4583333333334 425.8750000000001L529.4583333333334 175.875A41.66666666666666 41.66666666666666 0 0 0 470.5416666666667 175.875L220.5416666666667 425.875A41.66666666666666 41.66666666666666 0 0 0 220.5416666666667 484.7916666666666z" />
    <glyph glyph-name="chevron-left"
      unicode="&#xF121;"
      horiz-adv-x="1000" d=" M612.7916666666666 651.4583333333334A41.66666666666666 41.66666666666666 0 0 0 612.7916666666666 592.5416666666667L392.25 372L612.7916666666666 151.4583333333334A41.66666666666666 41.66666666666666 0 0 0 553.875 92.5416666666666L303.875 342.5416666666667A41.66666666666666 41.66666666666666 0 0 0 303.875 401.4583333333333L553.875 651.4583333333333A41.66666666666666 41.66666666666666 0 0 0 612.7916666666666 651.4583333333333z" />
    <glyph glyph-name="chevron-right"
      unicode="&#xF122;"
      horiz-adv-x="1000" d=" M387.2083333333333 92.5416666666666A41.66666666666666 41.66666666666666 0 0 0 387.2083333333333 151.4583333333334L607.75 372L387.2083333333333 592.5416666666667A41.66666666666666 41.66666666666666 0 0 0 446.125 651.4583333333334L696.125 401.4583333333334A41.66666666666666 41.66666666666666 0 0 0 696.125 342.5416666666668L446.125 92.5416666666666A41.66666666666666 41.66666666666666 0 0 0 387.2083333333334 92.5416666666666z" />
    <glyph glyph-name="chevron-up"
      unicode="&#xF123;"
      horiz-adv-x="1000" d=" M470.5416666666666 568.125A41.66666666666666 41.66666666666666 0 0 0 529.4583333333333 568.125L779.4583333333334 318.1250000000001A41.66666666666666 41.66666666666666 0 0 0 720.5416666666666 259.2083333333334L500 479.7500000000001L279.4583333333333 259.2083333333334A41.66666666666666 41.66666666666666 0 0 0 220.5416666666667 318.125L470.5416666666666 568.125z" />
    <glyph glyph-name="circle-add"
      unicode="&#xF124;"
      horiz-adv-x="1000" d=" M500 705.3333333333334A333.33333333333326 333.33333333333326 0 1 1 500 38.6666666666667A333.33333333333326 333.33333333333326 0 0 1 500 705.3333333333334zM83.3333333333333 372C83.3333333333333 602.125 269.875 788.6666666666666 500 788.6666666666666S916.6666666666666 602.125 916.6666666666666 372S730.125 -44.6666666666666 500 -44.6666666666666S83.3333333333333 141.875 83.3333333333333 372zM500 580.3333333333334A41.66666666666666 41.66666666666666 0 0 0 541.6666666666666 538.6666666666667V413.6666666666667H666.6666666666666A41.66666666666666 41.66666666666666 0 1 0 666.6666666666666 330.3333333333334H541.6666666666666V205.3333333333334A41.66666666666666 41.66666666666666 0 1 0 458.3333333333333 205.3333333333334V330.3333333333334H333.3333333333333A41.66666666666666 41.66666666666666 0 1 0 333.3333333333333 413.6666666666667H458.3333333333333V538.6666666666667A41.66666666666666 41.66666666666666 0 0 0 500 580.3333333333334z" />
    <glyph glyph-name="circle-arrow-down"
      unicode="&#xF125;"
      horiz-adv-x="1000" d=" M500 705.3333333333334A333.33333333333326 333.33333333333326 0 1 1 500 38.6666666666667A333.33333333333326 333.33333333333326 0 0 1 500 705.3333333333334zM83.3333333333333 372C83.3333333333333 602.125 269.875 788.6666666666666 500 788.6666666666666S916.6666666666666 602.125 916.6666666666666 372S730.125 -44.6666666666666 500 -44.6666666666666S83.3333333333333 141.875 83.3333333333333 372zM500 622A41.66666666666666 41.66666666666666 0 0 0 541.6666666666666 580.3333333333334V264.25L637.2083333333333 359.7916666666668A41.66666666666666 41.66666666666666 0 0 0 696.125 300.8750000000001L529.4583333333334 134.2083333333334A41.66666666666666 41.66666666666666 0 0 0 470.5416666666667 134.2083333333334L303.875 300.875A41.66666666666666 41.66666666666666 0 1 0 362.7916666666667 359.7916666666667L458.3333333333333 264.25V580.3333333333334A41.66666666666666 41.66666666666666 0 0 0 500 622z" />
    <glyph glyph-name="circle-arrow-left"
      unicode="&#xF126;"
      horiz-adv-x="1000" d=" M500 705.3333333333334A333.33333333333326 333.33333333333326 0 1 1 500 38.6666666666667A333.33333333333326 333.33333333333326 0 0 1 500 705.3333333333334zM83.3333333333333 372C83.3333333333333 602.125 269.875 788.6666666666666 500 788.6666666666666S916.6666666666666 602.125 916.6666666666666 372S730.125 -44.6666666666666 500 -44.6666666666666S83.3333333333333 141.875 83.3333333333333 372zM487.7916666666667 568.125A41.66666666666666 41.66666666666666 0 0 0 487.7916666666667 509.2083333333333L392.25 413.6666666666667H708.3333333333333A41.66666666666666 41.66666666666666 0 1 0 708.3333333333333 330.3333333333334H392.25L487.7916666666667 234.7916666666668A41.66666666666666 41.66666666666666 0 0 0 428.875 175.875L262.2083333333334 342.5416666666667A41.66666666666666 41.66666666666666 0 0 0 262.2083333333334 401.4583333333333L428.875 568.125A41.66666666666666 41.66666666666666 0 0 0 487.7916666666667 568.125z" />
    <glyph glyph-name="circle-arrow-right"
      unicode="&#xF127;"
      horiz-adv-x="1000" d=" M500 705.3333333333334A333.33333333333326 333.33333333333326 0 1 1 500 38.6666666666667A333.33333333333326 333.33333333333326 0 0 1 500 705.3333333333334zM83.3333333333333 372C83.3333333333333 602.125 269.875 788.6666666666666 500 788.6666666666666S916.6666666666666 602.125 916.6666666666666 372S730.125 -44.6666666666666 500 -44.6666666666666S83.3333333333333 141.875 83.3333333333333 372zM512.2083333333333 568.125A41.66666666666666 41.66666666666666 0 0 0 571.1249999999999 568.125L737.7916666666666 401.4583333333334A41.66666666666666 41.66666666666666 0 0 0 737.7916666666666 342.5416666666668L571.125 175.875A41.66666666666666 41.66666666666666 0 0 0 512.2083333333334 234.7916666666667L607.75 330.3333333333334H291.6666666666667A41.66666666666666 41.66666666666666 0 1 0 291.6666666666667 413.6666666666667H607.75L512.2083333333333 509.2083333333333A41.66666666666666 41.66666666666666 0 0 0 512.2083333333333 568.125z" />
    <glyph glyph-name="circle-arrow-up"
      unicode="&#xF128;"
      horiz-adv-x="1000" d=" M500 705.3333333333334A333.33333333333326 333.33333333333326 0 1 1 500 38.6666666666667A333.33333333333326 333.33333333333326 0 0 1 500 705.3333333333334zM83.3333333333333 372C83.3333333333333 602.125 269.875 788.6666666666666 500 788.6666666666666S916.6666666666666 602.125 916.6666666666666 372S730.125 -44.6666666666666 500 -44.6666666666666S83.3333333333333 141.875 83.3333333333333 372zM458.3333333333333 479.7500000000001L362.7916666666667 384.2083333333333A41.66666666666666 41.66666666666666 0 0 0 303.875 443.125L470.5416666666667 609.7916666666666A41.66666666666666 41.66666666666666 0 0 0 529.4583333333334 609.7916666666666L696.125 443.125A41.66666666666666 41.66666666666666 0 0 0 637.2083333333334 384.2083333333333L541.6666666666666 479.7500000000001V163.6666666666668A41.66666666666666 41.66666666666666 0 1 0 458.3333333333333 163.6666666666668V479.7500000000001z" />
    <glyph glyph-name="circle-check"
      unicode="&#xF129;"
      horiz-adv-x="1000" d=" M500 705.3333333333334A333.33333333333326 333.33333333333326 0 1 1 500 38.6666666666667A333.33333333333326 333.33333333333326 0 0 1 500 705.3333333333334zM83.3333333333333 372C83.3333333333333 602.125 269.875 788.6666666666666 500 788.6666666666666S916.6666666666666 602.125 916.6666666666666 372S730.125 -44.6666666666666 500 -44.6666666666666S83.3333333333333 141.875 83.3333333333333 372zM694.3333333333334 507.2916666666667A41.66666666666666 41.66666666666666 0 0 0 697.7916666666666 448.5000000000001L475.5833333333333 198.5A41.66666666666666 41.66666666666666 0 0 0 413.2916666666667 198.5L302.2083333333333 323.5A41.66666666666666 41.66666666666666 0 0 0 364.4583333333333 378.8333333333333L444.4583333333333 288.875L635.5416666666666 503.875A41.66666666666666 41.66666666666666 0 0 0 694.3333333333334 507.2916666666667z" />
    <glyph glyph-name="circle-error"
      unicode="&#xF12A;"
      horiz-adv-x="1000" d=" M500 705.3333333333334A333.33333333333326 333.33333333333326 0 1 1 500 38.6666666666667A333.33333333333326 333.33333333333326 0 0 1 500 705.3333333333334zM83.3333333333333 372C83.3333333333333 602.125 269.875 788.6666666666666 500 788.6666666666666S916.6666666666666 602.125 916.6666666666666 372S730.125 -44.6666666666666 500 -44.6666666666666S83.3333333333333 141.875 83.3333333333333 372zM324.7083333333333 547.2916666666667A41.66666666666666 41.66666666666666 0 0 0 383.625 547.2916666666667L500 430.9166666666667L616.3749999999999 547.2916666666667A41.66666666666666 41.66666666666666 0 1 0 675.2916666666666 488.375L558.9166666666666 372L675.2916666666666 255.6250000000001A41.66666666666666 41.66666666666666 0 0 0 616.375 196.7083333333334L500 313.0833333333334L383.625 196.7083333333334A41.66666666666666 41.66666666666666 0 0 0 324.7083333333334 255.625L441.0833333333333 372L324.7083333333333 488.375A41.66666666666666 41.66666666666666 0 0 0 324.7083333333333 547.2916666666666z" />
    <glyph glyph-name="circle-help"
      unicode="&#xF12B;"
      horiz-adv-x="1000" d=" M500 705.3333333333334A333.33333333333326 333.33333333333326 0 1 1 500 38.6666666666667A333.33333333333326 333.33333333333326 0 0 1 500 705.3333333333334zM83.3333333333333 372C83.3333333333333 602.125 269.875 788.6666666666666 500 788.6666666666666S916.6666666666666 602.125 916.6666666666666 372S730.125 -44.6666666666666 500 -44.6666666666666S83.3333333333333 141.875 83.3333333333333 372z M500 288.6666666666668A41.66666666666666 41.66666666666666 0 0 0 458.3333333333333 330.3333333333334V372A41.66666666666666 41.66666666666666 0 1 0 541.6666666666666 372V330.3333333333334A41.66666666666666 41.66666666666666 0 0 0 500 288.6666666666668zM437.5 184.5A62.5 62.5 0 1 0 562.5 184.5A62.5 62.5 0 0 0 437.5 184.5z M516.25 546.5416666666667C476.3749999999999 548.4166666666667 442.9166666666667 526.125 436.9166666666667 490.1666666666667A41.66666666666666 41.66666666666666 0 0 0 354.75 503.8333333333333C369.5833333333334 592.8333333333333 450.7083333333333 633.0833333333334 520.2083333333334 629.75C555.7916666666666 628.0833333333334 592.4166666666667 615.2916666666667 620.5833333333334 588.9583333333334C649.4583333333333 562 666.6666666666666 523.3333333333333 666.6666666666666 476.1666666666667C666.6666666666666 422.375 645.5 382.4583333333333 609.0416666666666 358.1666666666667C575.5833333333333 335.875 534.5416666666666 330.3333333333334 500 330.3333333333334A41.66666666666666 41.66666666666666 0 1 0 500 413.6666666666667C527.9166666666666 413.6666666666667 549.4166666666666 418.5416666666668 562.8333333333333 427.5000000000001C573.2499999999999 434.4583333333334 583.3333333333333 446.6666666666668 583.3333333333333 476.1666666666667C583.3333333333333 501.9166666666667 574.5 517.9583333333334 563.6666666666666 528.0833333333334C552.125 538.875 535.3333333333334 545.5833333333334 516.25 546.5416666666667z" />
    <glyph glyph-name="circle-information"
      unicode="&#xF12C;"
      horiz-adv-x="1000" d=" M500 705.3333333333334A333.33333333333326 333.33333333333326 0 1 1 500 38.6666666666667A333.33333333333326 333.33333333333326 0 0 1 500 705.3333333333334zM83.3333333333333 372C83.3333333333333 602.125 269.875 788.6666666666666 500 788.6666666666666S916.6666666666666 602.125 916.6666666666666 372S730.125 -44.6666666666666 500 -44.6666666666666S83.3333333333333 141.875 83.3333333333333 372z M500 455.3333333333334A41.66666666666666 41.66666666666666 0 0 0 541.6666666666666 413.6666666666667V163.6666666666668A41.66666666666666 41.66666666666666 0 1 0 458.3333333333333 163.6666666666668V413.6666666666667A41.66666666666666 41.66666666666666 0 0 0 500 455.3333333333334zM562.5 559.5A62.5 62.5 0 1 0 437.5 559.5A62.5 62.5 0 0 0 562.5 559.5z" />
    <glyph glyph-name="circle-remove"
      unicode="&#xF12D;"
      horiz-adv-x="1000" d=" M500 705.3333333333334A333.33333333333326 333.33333333333326 0 1 1 500 38.6666666666667A333.33333333333326 333.33333333333326 0 0 1 500 705.3333333333334zM83.3333333333333 372C83.3333333333333 602.125 269.875 788.6666666666666 500 788.6666666666666S916.6666666666666 602.125 916.6666666666666 372S730.125 -44.6666666666666 500 -44.6666666666666S83.3333333333333 141.875 83.3333333333333 372zM291.6666666666667 372A41.66666666666666 41.66666666666666 0 0 0 333.3333333333333 413.6666666666667H666.6666666666666A41.66666666666666 41.66666666666666 0 1 0 666.6666666666666 330.3333333333334H333.3333333333333A41.66666666666666 41.66666666666666 0 0 0 291.6666666666667 372z" />
    <glyph glyph-name="circle-warning"
      unicode="&#xF12E;"
      horiz-adv-x="1000" d=" M500 705.3333333333334A333.33333333333326 333.33333333333326 0 1 1 500 38.6666666666667A333.33333333333326 333.33333333333326 0 0 1 500 705.3333333333334zM83.3333333333333 372C83.3333333333333 602.125 269.875 788.6666666666666 500 788.6666666666666S916.6666666666666 602.125 916.6666666666666 372S730.125 -44.6666666666666 500 -44.6666666666666S83.3333333333333 141.875 83.3333333333333 372z M500 288.6666666666668A41.66666666666666 41.66666666666666 0 0 0 458.3333333333333 330.3333333333334V580.3333333333334A41.66666666666666 41.66666666666666 0 1 0 541.6666666666666 580.3333333333334V330.3333333333334A41.66666666666666 41.66666666666666 0 0 0 500 288.6666666666668zM437.5 184.5A62.5 62.5 0 1 0 562.5 184.5A62.5 62.5 0 0 0 437.5 184.5z" />
    <glyph glyph-name="circle"
      unicode="&#xF12F;"
      horiz-adv-x="1000" d=" M500 705.3333333333334A333.33333333333326 333.33333333333326 0 1 1 500 38.6666666666667A333.33333333333326 333.33333333333326 0 0 1 500 705.3333333333334zM83.3333333333333 372C83.3333333333333 602.125 269.875 788.6666666666666 500 788.6666666666666S916.6666666666666 602.125 916.6666666666666 372S730.125 -44.6666666666666 500 -44.6666666666666S83.3333333333333 141.875 83.3333333333333 372z" />
    <glyph glyph-name="clipboard-check"
      unicode="&#xF130;"
      horiz-adv-x="1000" d=" M333.3333333333333 747A41.66666666666666 41.66666666666666 0 0 0 375 788.6666666666666H625A41.66666666666666 41.66666666666666 0 0 0 666.6666666666666 747H750A83.33333333333331 83.33333333333331 0 0 0 833.3333333333333 663.6666666666667V38.6666666666667A83.33333333333331 83.33333333333331 0 0 0 750 -44.6666666666666H250A83.33333333333331 83.33333333333331 0 0 0 166.6666666666667 38.6666666666667V663.6666666666667A83.33333333333331 83.33333333333331 0 0 0 250 747H333.3333333333333zM333.3333333333333 663.6666666666667H250V38.6666666666667H750V663.6666666666667H666.6666666666666V622A41.66666666666666 41.66666666666666 0 0 0 625 580.3333333333334H375A41.66666666666666 41.66666666666666 0 0 0 333.3333333333333 622V663.6666666666667zM583.3333333333333 705.3333333333334H416.6666666666667V663.6666666666667H583.3333333333333V705.3333333333334zM654.4583333333334 422.2916666666668A41.66666666666666 41.66666666666666 0 0 0 654.4583333333334 363.3750000000001L487.7916666666667 196.7083333333334A41.66666666666666 41.66666666666666 0 0 0 428.875 196.7083333333334L345.5416666666667 280.0416666666667A41.66666666666666 41.66666666666666 0 1 0 404.4583333333333 338.9583333333334L458.3333333333333 285.0833333333334L595.5416666666666 422.2916666666668A41.66666666666666 41.66666666666666 0 0 0 654.4583333333333 422.2916666666668z" />
    <glyph glyph-name="clipboard-list"
      unicode="&#xF131;"
      horiz-adv-x="1000" d=" M375 392.8333333333334A41.66666666666666 41.66666666666666 0 1 1 375 476.1666666666667A41.66666666666666 41.66666666666666 0 0 1 375 392.8333333333334zM458.3333333333333 434.5A41.66666666666666 41.66666666666666 0 0 0 500 476.1666666666667H625A41.66666666666666 41.66666666666666 0 1 0 625 392.8333333333334H500A41.66666666666666 41.66666666666666 0 0 0 458.3333333333333 434.5zM500 351.1666666666668A41.66666666666666 41.66666666666666 0 1 1 500 267.8333333333334H625A41.66666666666666 41.66666666666666 0 1 1 625 351.1666666666668H500zM500 226.1666666666668A41.66666666666666 41.66666666666666 0 1 1 500 142.8333333333334H625A41.66666666666666 41.66666666666666 0 1 1 625 226.1666666666668H500zM416.6666666666667 309.5A41.66666666666666 41.66666666666666 0 1 0 333.3333333333333 309.5A41.66666666666666 41.66666666666666 0 0 0 416.6666666666667 309.5zM375 142.8333333333334A41.66666666666666 41.66666666666666 0 1 1 375 226.1666666666668A41.66666666666666 41.66666666666666 0 0 1 375 142.8333333333334z M375 788.6666666666666A41.66666666666666 41.66666666666666 0 0 1 333.3333333333333 747H250A83.33333333333331 83.33333333333331 0 0 1 166.6666666666667 663.6666666666667V38.6666666666667A83.33333333333331 83.33333333333331 0 0 1 250 -44.6666666666666H750A83.33333333333331 83.33333333333331 0 0 1 833.3333333333333 38.6666666666667V663.6666666666667A83.33333333333331 83.33333333333331 0 0 1 750 747H666.6666666666666A41.66666666666666 41.66666666666666 0 0 1 625 788.6666666666666H375zM666.6666666666666 663.6666666666667H750V38.6666666666667H250V663.6666666666667H333.3333333333333V622A41.66666666666666 41.66666666666666 0 0 1 375 580.3333333333334H625A41.66666666666666 41.66666666666666 0 0 1 666.6666666666666 622V663.6666666666667zM416.6666666666667 663.6666666666667V705.3333333333334H583.3333333333333V663.6666666666667H416.6666666666667z" />
    <glyph glyph-name="clipboard"
      unicode="&#xF132;"
      horiz-adv-x="1000" d=" M333.3333333333333 747A41.66666666666666 41.66666666666666 0 0 0 375 788.6666666666666H625A41.66666666666666 41.66666666666666 0 0 0 666.6666666666666 747H750A83.33333333333331 83.33333333333331 0 0 0 833.3333333333333 663.6666666666667V38.6666666666667A83.33333333333331 83.33333333333331 0 0 0 750 -44.6666666666666H250A83.33333333333331 83.33333333333331 0 0 0 166.6666666666667 38.6666666666667V663.6666666666667A83.33333333333331 83.33333333333331 0 0 0 250 747H333.3333333333333zM333.3333333333333 663.6666666666667H250V38.6666666666667H750V663.6666666666667H666.6666666666666V622A41.66666666666666 41.66666666666666 0 0 0 625 580.3333333333334H375A41.66666666666666 41.66666666666666 0 0 0 333.3333333333333 622V663.6666666666667zM583.3333333333333 705.3333333333334H416.6666666666667V663.6666666666667H583.3333333333333V705.3333333333334z" />
    <glyph glyph-name="clock"
      unicode="&#xF133;"
      horiz-adv-x="1000" d=" M500 705.3333333333334A333.33333333333326 333.33333333333326 0 1 1 500 38.6666666666667A333.33333333333326 333.33333333333326 0 0 1 500 705.3333333333334zM83.3333333333333 372C83.3333333333333 602.125 269.875 788.6666666666666 500 788.6666666666666S916.6666666666666 602.125 916.6666666666666 372S730.125 -44.6666666666666 500 -44.6666666666666S83.3333333333333 141.875 83.3333333333333 372zM500 622A41.66666666666666 41.66666666666666 0 0 0 541.6666666666666 580.3333333333334V389.25L654.4583333333334 276.4583333333334A41.66666666666666 41.66666666666666 0 0 0 595.5416666666666 217.5416666666668L470.5416666666667 342.5416666666668A41.66666666666666 41.66666666666666 0 0 0 458.3333333333333 372V580.3333333333334A41.66666666666666 41.66666666666666 0 0 0 500 622z" />
    <glyph glyph-name="close"
      unicode="&#xF134;"
      horiz-adv-x="1000" d=" M220.5416666666667 651.4583333333334A41.66666666666666 41.66666666666666 0 0 0 279.4583333333333 651.4583333333334L500 430.9166666666667L720.5416666666666 651.4583333333334A41.66666666666666 41.66666666666666 0 1 0 779.4583333333334 592.5416666666667L558.9166666666666 372L779.4583333333334 151.4583333333334A41.66666666666666 41.66666666666666 0 0 0 720.5416666666666 92.5416666666666L500 313.0833333333334L279.4583333333333 92.5416666666666A41.66666666666666 41.66666666666666 0 0 0 220.5416666666667 151.4583333333334L441.0833333333333 372L220.5416666666667 592.5416666666667A41.66666666666666 41.66666666666666 0 0 0 220.5416666666667 651.4583333333334z" />
    <glyph glyph-name="cloud-download"
      unicode="&#xF135;"
      horiz-adv-x="1000" d=" M458.3333333333333 705.3333333333334A166.66666666666663 166.66666666666663 0 0 1 291.7083333333333 534.4166666666667A41.66666666666666 41.66666666666666 0 0 0 260.4583333333333 493.0833333333333A125.0833333333333 125.0833333333333 0 0 1 291.6666666666667 247H333.3333333333333A41.66666666666666 41.66666666666666 0 1 0 333.3333333333333 163.6666666666668H291.6666666666667A208.33333333333334 208.33333333333334 0 0 0 209.5833333333334 563.5A250 250 0 0 0 674.9583333333334 663.5A250 250 0 0 0 666.6666666666666 163.6666666666668A41.66666666666666 41.66666666666666 0 1 0 666.6666666666666 247A166.66666666666663 166.66666666666663 0 1 1 653 579.7916666666667A41.66666666666666 41.66666666666666 0 0 0 611.375 604.7916666666667A166.70833333333334 166.70833333333334 0 0 1 458.3333333333333 705.3333333333334zM500 455.3333333333334A41.66666666666666 41.66666666666666 0 0 0 541.6666666666666 413.6666666666667V97.5833333333335L553.8749999999999 109.7916666666667A41.66666666666666 41.66666666666666 0 0 0 612.7916666666666 50.875L529.4583333333333 -32.4583333333333A41.66666666666666 41.66666666666666 0 0 0 470.5416666666666 -32.4583333333333L387.2083333333333 50.875A41.66666666666666 41.66666666666666 0 1 0 446.125 109.7916666666667L458.3333333333333 97.5833333333335V413.6666666666667A41.66666666666666 41.66666666666666 0 0 0 499.9999999999999 455.3333333333334z" />
    <glyph glyph-name="cloud-upload"
      unicode="&#xF136;"
      horiz-adv-x="1000" d=" M458.3333333333333 705.3333333333334A166.66666666666663 166.66666666666663 0 0 1 291.7083333333333 534.4166666666667A41.66666666666666 41.66666666666666 0 0 0 260.4583333333333 493.0833333333333A125.0833333333333 125.0833333333333 0 0 1 291.6666666666667 247H333.3333333333333A41.66666666666666 41.66666666666666 0 1 0 333.3333333333333 163.6666666666668H291.6666666666667A208.33333333333334 208.33333333333334 0 0 0 209.5833333333334 563.5A250 250 0 0 0 674.9583333333334 663.5A250 250 0 0 0 666.6666666666666 163.6666666666668A41.66666666666666 41.66666666666666 0 1 0 666.6666666666666 247A166.66666666666663 166.66666666666663 0 1 1 653 579.7916666666667A41.66666666666666 41.66666666666666 0 0 0 611.375 604.7916666666667A166.70833333333334 166.70833333333334 0 0 1 458.3333333333333 705.3333333333334zM470.5416666666666 484.7916666666667A41.66666666666666 41.66666666666666 0 0 0 529.4583333333333 484.7916666666667L612.7916666666666 401.4583333333334A41.66666666666666 41.66666666666666 0 0 0 553.8749999999999 342.5416666666668L541.6666666666666 354.75V38.6666666666667A41.66666666666666 41.66666666666666 0 1 0 458.3333333333333 38.6666666666667V354.75L446.125 342.5416666666668A41.66666666666666 41.66666666666666 0 0 0 387.2083333333334 401.4583333333334L470.5416666666667 484.7916666666667z" />
    <glyph glyph-name="cloud"
      unicode="&#xF137;"
      horiz-adv-x="1000" d=" M208.3333333333333 455.3333333333334A250 250 0 0 0 694.6249999999999 537.125A250 250 0 0 0 666.6666666666666 38.6666666666667H291.6666666666667A208.33333333333334 208.33333333333334 0 0 0 208.9166666666667 438.25A252.95833333333326 252.95833333333326 0 0 0 208.3333333333333 455.3333333333334zM458.3333333333333 622A166.66666666666663 166.66666666666663 0 0 1 295.7083333333333 418.7083333333334A41.66666666666666 41.66666666666666 0 0 0 264.1666666666667 368.9583333333334A125.0833333333333 125.0833333333333 0 0 1 291.6666666666667 122H666.6666666666666A166.66666666666663 166.66666666666663 0 1 1 663.3333333333333 455.3333333333334A41.66666666666666 41.66666666666666 0 0 0 621.6666666666666 488.6666666666667A166.74999999999994 166.74999999999994 0 0 1 458.3333333333333 622z" />
    <glyph glyph-name="cloudy"
      unicode="&#xF138;"
      horiz-adv-x="1000" d=" M666.6666666666666 663.6666666666667A125 125 0 0 0 773.2083333333333 473.25A248.33333333333331 248.33333333333331 0 0 1 694.6249999999999 495.4583333333333A250.7916666666666 250.7916666666666 0 0 1 582.25 630.875A124.58333333333334 124.58333333333334 0 0 0 666.6666666666666 663.6666666666667zM497.7083333333333 660.5833333333334A250 250 0 0 1 208.9166666666667 396.5833333333334A208.33333333333334 208.33333333333334 0 0 1 291.6666666666667 -3H666.6666666666666A250 250 0 0 1 841.6666666666666 425.5416666666667A208.33333333333334 208.33333333333334 0 0 1 497.7083333333333 660.5416666666666zM291.6666666666667 413.6666666666667A166.66666666666663 166.66666666666663 0 0 0 621.6666666666666 447.0000000000001A41.66666666666666 41.66666666666666 0 0 1 663.3333333333333 413.6666666666667H666.6666666666666A166.66666666666663 166.66666666666663 0 0 0 666.6666666666666 80.3333333333334H291.6666666666667A125 125 0 0 0 264.1666666666667 327.2916666666667A41.66666666666666 41.66666666666666 0 0 1 295.7083333333333 377.0416666666667A167.375 167.375 0 0 0 291.6666666666667 413.6666666666667z" />
    <glyph glyph-name="comment"
      unicode="&#xF139;"
      horiz-adv-x="1000" d=" M208.3333333333333 747A83.33333333333331 83.33333333333331 0 0 1 125 663.6666666666667V80.3333333333334A83.33333333333331 83.33333333333331 0 0 1 208.3333333333333 -3H791.6666666666666A83.33333333333331 83.33333333333331 0 0 1 875 80.3333333333334V663.6666666666667A83.33333333333331 83.33333333333331 0 0 1 791.6666666666666 747H208.3333333333333zM791.6666666666666 389.25L482.75 80.3333333333334H208.3333333333333V663.6666666666667H791.6666666666666V389.25zM600.5833333333333 80.3333333333334L791.6666666666666 271.4166666666668V80.3333333333334H600.5833333333333z" />
    <glyph glyph-name="compass"
      unicode="&#xF13A;"
      horiz-adv-x="1000" d=" M166.6666666666667 372A333.33333333333326 333.33333333333326 0 1 0 833.3333333333333 372A333.33333333333326 333.33333333333326 0 0 0 166.6666666666667 372zM500 788.6666666666666C269.875 788.6666666666666 83.3333333333333 602.125 83.3333333333333 372S269.875 -44.6666666666666 500 -44.6666666666666S916.6666666666666 141.875 916.6666666666666 372S730.125 788.6666666666666 500 788.6666666666666zM558.9166666666666 313.0833333333334L647.3333333333333 519.3333333333335L441.0833333333333 430.9166666666668L352.6666666666666 224.6666666666668L558.9166666666665 313.0833333333335z" />
    <glyph glyph-name="computer"
      unicode="&#xF13B;"
      horiz-adv-x="1000" d=" M83.3333333333333 663.6666666666667A83.33333333333331 83.33333333333331 0 0 0 166.6666666666667 747H833.3333333333333A83.33333333333331 83.33333333333331 0 0 0 916.6666666666666 663.6666666666667V205.3333333333334A83.33333333333331 83.33333333333331 0 0 0 833.3333333333333 122H541.6666666666666V38.6666666666667H666.6666666666666A41.66666666666666 41.66666666666666 0 1 0 666.6666666666666 -44.6666666666666H333.3333333333333A41.66666666666666 41.66666666666666 0 1 0 333.3333333333333 38.6666666666667H458.3333333333333V122H166.6666666666667A83.33333333333331 83.33333333333331 0 0 0 83.3333333333333 205.3333333333334V663.6666666666667zM833.3333333333333 205.3333333333334V663.6666666666667H166.6666666666667V205.3333333333334H833.3333333333333z" />
    <glyph glyph-name="copy"
      unicode="&#xF13C;"
      horiz-adv-x="1000" d=" M83.3333333333333 705.3333333333334A83.33333333333331 83.33333333333331 0 0 0 166.6666666666667 788.6666666666666H583.3333333333333A83.33333333333331 83.33333333333331 0 0 0 666.6666666666666 705.3333333333334V538.6666666666667H833.3333333333333A83.33333333333331 83.33333333333331 0 0 0 916.6666666666666 455.3333333333334V38.6666666666667A83.33333333333331 83.33333333333331 0 0 0 833.3333333333333 -44.6666666666666H416.6666666666667A83.33333333333331 83.33333333333331 0 0 0 333.3333333333333 38.6666666666667V205.3333333333334H166.6666666666667A83.33333333333331 83.33333333333331 0 0 0 83.3333333333333 288.6666666666668V705.3333333333334zM416.6666666666667 205.3333333333334V38.6666666666667H833.3333333333333V455.3333333333334H666.6666666666666V288.6666666666668A83.33333333333331 83.33333333333331 0 0 0 583.3333333333333 205.3333333333334H416.6666666666667zM583.3333333333333 288.6666666666668V705.3333333333334H166.6666666666667V288.6666666666668H583.3333333333333z" />
    <glyph glyph-name="credit-card"
      unicode="&#xF13D;"
      horiz-adv-x="1000" d=" M916.6666666666666 622A83.33333333333331 83.33333333333331 0 0 1 833.3333333333333 705.3333333333334H166.6666666666667A83.33333333333331 83.33333333333331 0 0 1 83.3333333333333 622V122A83.33333333333331 83.33333333333331 0 0 1 166.6666666666667 38.6666666666667H833.3333333333333A83.33333333333331 83.33333333333331 0 0 1 916.6666666666666 122V622zM833.3333333333333 538.6666666666667H166.6666666666667V622H833.3333333333333V538.6666666666667zM166.6666666666667 413.6666666666667H833.3333333333333V122H166.6666666666667V413.6666666666667z" />
    <glyph glyph-name="database"
      unicode="&#xF13E;"
      horiz-adv-x="1000" d=" M208.3333333333333 622C208.3333333333333 620.9166666666667 208.75 614.9166666666667 220.5 604.5C232.1666666666667 594.1666666666667 251.5 582.9166666666667 278.9166666666667 572.625C333.5 552.2083333333334 411.6666666666667 538.6666666666667 500 538.6666666666667S666.5416666666666 552.1666666666667 721.0833333333334 572.625C748.5 582.9166666666667 767.7916666666666 594.1666666666667 779.5 604.5416666666667C791.2499999999999 614.9166666666667 791.6666666666666 620.9166666666667 791.6666666666666 622C791.6666666666666 623.0833333333334 791.2499999999999 629.0833333333334 779.4999999999999 639.5C767.8333333333331 649.8333333333334 748.4999999999999 661.0833333333334 721.0833333333331 671.375C666.5 691.7916666666666 588.3333333333333 705.3333333333334 500 705.3333333333334S333.4583333333333 691.8333333333334 278.9166666666667 671.375C251.5 661.0833333333334 232.2083333333334 649.8333333333334 220.5 639.4583333333334C208.75 629.0833333333334 208.3333333333333 623.0833333333334 208.3333333333333 622zM125 622C125 655.4583333333334 143.2083333333333 682.3333333333334 165.2083333333333 701.8333333333334C187.2916666666667 721.375 216.7916666666666 737.0833333333334 249.6666666666667 749.4166666666667C315.75 774.2083333333334 404.25 788.6666666666666 500 788.6666666666666C595.7083333333334 788.6666666666666 684.25 774.2083333333334 750.3333333333333 749.4166666666666C783.2499999999999 737.0833333333334 812.75 721.375 834.7916666666666 701.8333333333334C856.75 682.3333333333334 875 655.4583333333334 875 622V122C875 88.5416666666666 856.75 61.6666666666667 834.7916666666666 42.1666666666667C812.7083333333333 22.625 783.2083333333333 6.9166666666667 750.3333333333333 -5.4166666666666C684.25 -30.2083333333333 595.7499999999999 -44.6666666666666 500 -44.6666666666666C404.2916666666667 -44.6666666666666 315.75 -30.1666666666666 249.6666666666667 -5.4166666666666C216.75 6.9166666666667 187.25 22.6250000000001 165.2083333333333 42.1666666666667C143.2083333333333 61.6666666666667 125 88.5416666666666 125 122V622zM208.3333333333333 455.3333333333334C208.3333333333333 454.2916666666667 208.75 448.25 220.5 437.8333333333334C232.1666666666667 427.5000000000001 251.5 416.25 278.9166666666667 405.9583333333333C333.5 385.5416666666667 411.6666666666667 372 500 372S666.5416666666666 385.5 721.0833333333334 405.9583333333333C748.5 416.25 767.7916666666666 427.5 779.5 437.875C791.25 448.2916666666667 791.6666666666667 454.2916666666667 791.6666666666667 455.3333333333334V513A355 355 0 0 0 750.3333333333334 494.5833333333334C684.25 469.7916666666667 595.75 455.3333333333334 500 455.3333333333334C404.2916666666667 455.3333333333334 315.75 469.7916666666667 249.6666666666667 494.5833333333334A355 355 0 0 0 208.3333333333333 513V455.3333333333334zM208.3333333333333 346.3333333333334V288.6666666666668C208.3333333333333 287.625 208.75 281.5833333333334 220.5 271.1666666666668C232.1666666666667 260.8333333333334 251.5 249.5833333333334 278.9166666666667 239.2916666666667C333.5 218.875 411.6666666666667 205.3333333333334 500 205.3333333333334S666.5416666666666 218.8333333333334 721.0833333333334 239.2916666666667C748.5 249.5833333333334 767.7916666666666 260.8333333333334 779.5 271.2083333333334C791.25 281.625 791.6666666666667 287.625 791.6666666666667 288.6666666666668V346.3333333333334C778.7500000000001 339.5000000000001 764.8750000000001 333.4166666666668 750.3333333333334 327.9166666666668C684.2500000000001 303.125 595.75 288.6666666666668 500.0000000000001 288.6666666666668C404.2916666666668 288.6666666666668 315.7500000000002 303.1666666666668 249.6666666666668 327.9166666666668A354.9166666666667 354.9166666666667 0 0 0 208.3333333333333 346.3333333333334zM208.3333333333333 179.6666666666668V122C208.3333333333333 120.9166666666668 208.75 114.9166666666666 220.5 104.5C232.1666666666667 94.1666666666666 251.5 82.9166666666666 278.9166666666667 72.625C333.5 52.2083333333334 411.6666666666667 38.6666666666667 500 38.6666666666667S666.5416666666666 52.1666666666667 721.0833333333334 72.6250000000001C748.5 82.9166666666667 767.7916666666666 94.1666666666667 779.5 104.5000000000001C791.25 114.9166666666668 791.6666666666667 120.9583333333335 791.6666666666667 122.0000000000002V179.6666666666669C778.7500000000001 172.8333333333335 764.8750000000001 166.7500000000002 750.3333333333334 161.2500000000002C684.2500000000001 136.4583333333336 595.75 122.0000000000002 500.0000000000001 122.0000000000002C404.2916666666668 122.0000000000002 315.7500000000002 136.5000000000001 249.6666666666668 161.2500000000002A354.9166666666667 354.9166666666667 0 0 0 208.3333333333333 179.6666666666668z" />
    <glyph glyph-name="delete-alt"
      unicode="&#xF13F;"
      horiz-adv-x="1000" d=" M291.6666666666667 705.3333333333334A83.33333333333331 83.33333333333331 0 0 0 375 788.6666666666666H625A83.33333333333331 83.33333333333331 0 0 0 708.3333333333333 705.3333333333334V622H875A41.66666666666666 41.66666666666666 0 1 0 875 538.6666666666667H830.4583333333334L794.3333333333333 32.7500000000001A83.33333333333331 83.33333333333331 0 0 0 711.2083333333333 -44.6666666666666H288.75A83.33333333333331 83.33333333333331 0 0 0 205.625 32.7500000000001L169.5833333333334 538.6666666666667H125A41.66666666666666 41.66666666666666 0 0 0 125 622H291.6666666666667V705.3333333333334zM375 622H625V705.3333333333334H375V622zM253.0833333333333 538.6666666666667L288.7916666666667 38.6666666666667H711.25L746.9583333333333 538.6666666666667H253.0833333333333z" />
    <glyph glyph-name="delete"
      unicode="&#xF140;"
      horiz-adv-x="1000" d=" M291.6666666666667 705.3333333333334A83.33333333333331 83.33333333333331 0 0 0 375 788.6666666666666H625A83.33333333333331 83.33333333333331 0 0 0 708.3333333333333 705.3333333333334V622H875A41.66666666666666 41.66666666666666 0 1 0 875 538.6666666666667H830.4583333333334L794.3333333333333 32.7500000000001A83.33333333333331 83.33333333333331 0 0 0 711.2083333333333 -44.6666666666666H288.75A83.33333333333331 83.33333333333331 0 0 0 205.625 32.7500000000001L169.5833333333334 538.6666666666667H125A41.66666666666666 41.66666666666666 0 0 0 125 622H291.6666666666667V705.3333333333334zM375 622H625V705.3333333333334H375V622zM253.0833333333333 538.6666666666667L288.7916666666667 38.6666666666667H711.25L746.9583333333333 538.6666666666667H253.0833333333333zM416.6666666666667 455.3333333333334A41.66666666666666 41.66666666666666 0 0 0 458.3333333333333 413.6666666666667V163.6666666666668A41.66666666666666 41.66666666666666 0 1 0 375 163.6666666666668V413.6666666666667A41.66666666666666 41.66666666666666 0 0 0 416.6666666666667 455.3333333333334zM583.3333333333333 455.3333333333334A41.66666666666666 41.66666666666666 0 0 0 625 413.6666666666667V163.6666666666668A41.66666666666666 41.66666666666666 0 1 0 541.6666666666666 163.6666666666668V413.6666666666667A41.66666666666666 41.66666666666666 0 0 0 583.3333333333333 455.3333333333334z" />
    <glyph glyph-name="document-add"
      unicode="&#xF141;"
      horiz-adv-x="1000" d=" M166.6666666666667 705.3333333333334A83.33333333333331 83.33333333333331 0 0 0 250 788.6666666666666H583.3333333333333A41.66666666666666 41.66666666666666 0 0 0 612.7916666666666 776.4583333333334L821.125 568.125A41.66666666666666 41.66666666666666 0 0 0 833.3333333333333 538.6666666666667V38.6666666666667A83.33333333333331 83.33333333333331 0 0 0 750 -44.6666666666666H250A83.33333333333331 83.33333333333331 0 0 0 166.6666666666667 38.6666666666667V705.3333333333334zM732.7499999999999 538.6666666666667L583.3333333333333 688.0833333333334V538.6666666666667H732.7499999999999zM500 705.3333333333334H250V38.6666666666667H750V455.3333333333334H541.6666666666666A41.66666666666666 41.66666666666666 0 0 0 500 497V705.3333333333334zM500 372A41.66666666666666 41.66666666666666 0 0 0 541.6666666666666 330.3333333333334V288.6666666666668H583.3333333333333A41.66666666666666 41.66666666666666 0 1 0 583.3333333333333 205.3333333333334H541.6666666666666V163.6666666666668A41.66666666666666 41.66666666666666 0 1 0 458.3333333333333 163.6666666666668V205.3333333333334H416.6666666666667A41.66666666666666 41.66666666666666 0 1 0 416.6666666666667 288.6666666666668H458.3333333333333V330.3333333333334A41.66666666666666 41.66666666666666 0 0 0 500 372z" />
    <glyph glyph-name="document-check"
      unicode="&#xF142;"
      horiz-adv-x="1000" d=" M166.6666666666667 705.3333333333334A83.33333333333331 83.33333333333331 0 0 0 250 788.6666666666666H583.3333333333333A41.66666666666666 41.66666666666666 0 0 0 612.7916666666666 776.4583333333334L821.125 568.125A41.66666666666666 41.66666666666666 0 0 0 833.3333333333333 538.6666666666667V38.6666666666667A83.33333333333331 83.33333333333331 0 0 0 750 -44.6666666666666H250A83.33333333333331 83.33333333333331 0 0 0 166.6666666666667 38.6666666666667V705.3333333333334zM732.7499999999999 538.6666666666667L583.3333333333333 688.0833333333334V538.6666666666667H732.7499999999999zM500 705.3333333333334H250V38.6666666666667H750V455.3333333333334H541.6666666666666A41.66666666666666 41.66666666666666 0 0 0 500 497V705.3333333333334zM654.4583333333334 359.7916666666668A41.66666666666666 41.66666666666666 0 0 0 654.4583333333334 300.8750000000001L487.7916666666667 134.2083333333334A41.66666666666666 41.66666666666666 0 0 0 428.875 134.2083333333334L345.5416666666667 217.5416666666666A41.66666666666666 41.66666666666666 0 1 0 404.4583333333333 276.4583333333334L458.3333333333333 222.5833333333334L595.5416666666666 359.7916666666668A41.66666666666666 41.66666666666666 0 0 0 654.4583333333333 359.7916666666668z" />
    <glyph glyph-name="document-download"
      unicode="&#xF143;"
      horiz-adv-x="1000" d=" M166.6666666666667 705.3333333333334A83.33333333333331 83.33333333333331 0 0 0 250 788.6666666666666H583.3333333333333A41.66666666666666 41.66666666666666 0 0 0 612.7916666666666 776.4583333333334L821.125 568.125A41.66666666666666 41.66666666666666 0 0 0 833.3333333333333 538.6666666666667V38.6666666666667A83.33333333333331 83.33333333333331 0 0 0 750 -44.6666666666666H250A83.33333333333331 83.33333333333331 0 0 0 166.6666666666667 38.6666666666667V705.3333333333334zM732.7499999999999 538.6666666666667L583.3333333333333 688.0833333333334V538.6666666666667H732.7499999999999zM500 705.3333333333334H250V38.6666666666667H750V455.3333333333334H541.6666666666666A41.66666666666666 41.66666666666666 0 0 0 500 497V705.3333333333334zM500 392.8333333333334A41.66666666666666 41.66666666666666 0 0 0 541.6666666666666 351.1666666666668V243.4166666666668L553.8749999999999 255.625A41.66666666666666 41.66666666666666 0 0 0 612.7916666666666 196.7083333333334L529.4583333333333 113.375A41.66666666666666 41.66666666666666 0 0 0 470.5416666666666 113.375L387.2083333333333 196.7083333333334A41.66666666666666 41.66666666666666 0 1 0 446.125 255.625L458.3333333333333 243.4166666666668V351.1666666666668A41.66666666666666 41.66666666666666 0 0 0 499.9999999999999 392.8333333333334z" />
    <glyph glyph-name="document-empty"
      unicode="&#xF144;"
      horiz-adv-x="1000" d=" M166.6666666666667 705.3333333333334A83.33333333333331 83.33333333333331 0 0 0 250 788.6666666666666H583.3333333333333A41.66666666666666 41.66666666666666 0 0 0 612.7916666666666 776.4583333333334L821.125 568.125A41.66666666666666 41.66666666666666 0 0 0 833.3333333333333 538.6666666666667V38.6666666666667A83.33333333333331 83.33333333333331 0 0 0 750 -44.6666666666666H250A83.33333333333331 83.33333333333331 0 0 0 166.6666666666667 38.6666666666667V705.3333333333334zM732.7499999999999 538.6666666666667L583.3333333333333 688.0833333333334V538.6666666666667H732.7499999999999zM500 705.3333333333334H250V38.6666666666667H750V455.3333333333334H541.6666666666666A41.66666666666666 41.66666666666666 0 0 0 500 497V705.3333333333334z" />
    <glyph glyph-name="document-remove"
      unicode="&#xF145;"
      horiz-adv-x="1000" d=" M166.6666666666667 705.3333333333334A83.33333333333331 83.33333333333331 0 0 0 250 788.6666666666666H583.3333333333333A41.66666666666666 41.66666666666666 0 0 0 612.7916666666666 776.4583333333334L821.125 568.125A41.66666666666666 41.66666666666666 0 0 0 833.3333333333333 538.6666666666667V38.6666666666667A83.33333333333331 83.33333333333331 0 0 0 750 -44.6666666666666H250A83.33333333333331 83.33333333333331 0 0 0 166.6666666666667 38.6666666666667V705.3333333333334zM732.7499999999999 538.6666666666667L583.3333333333333 688.0833333333334V538.6666666666667H732.7499999999999zM500 705.3333333333334H250V38.6666666666667H750V455.3333333333334H541.6666666666666A41.66666666666666 41.66666666666666 0 0 0 500 497V705.3333333333334zM375 247A41.66666666666666 41.66666666666666 0 0 0 416.6666666666667 288.6666666666668H583.3333333333333A41.66666666666666 41.66666666666666 0 1 0 583.3333333333333 205.3333333333334H416.6666666666667A41.66666666666666 41.66666666666666 0 0 0 375 247z" />
    <glyph glyph-name="document"
      unicode="&#xF146;"
      horiz-adv-x="1000" d=" M166.6666666666667 705.3333333333334A83.33333333333331 83.33333333333331 0 0 0 250 788.6666666666666H583.3333333333333A41.66666666666666 41.66666666666666 0 0 0 612.7916666666666 776.4583333333334L821.125 568.125A41.66666666666666 41.66666666666666 0 0 0 833.3333333333333 538.6666666666667V38.6666666666667A83.33333333333331 83.33333333333331 0 0 0 750 -44.6666666666666H250A83.33333333333331 83.33333333333331 0 0 0 166.6666666666667 38.6666666666667V705.3333333333334zM732.7499999999999 538.6666666666667L583.3333333333333 688.0833333333334V538.6666666666667H732.7499999999999zM500 705.3333333333334H250V38.6666666666667H750V455.3333333333334H541.6666666666666A41.66666666666666 41.66666666666666 0 0 0 500 497V705.3333333333334zM333.3333333333333 330.3333333333334A41.66666666666666 41.66666666666666 0 0 0 375 372H625A41.66666666666666 41.66666666666666 0 1 0 625 288.6666666666668H375A41.66666666666666 41.66666666666666 0 0 0 333.3333333333333 330.3333333333334zM333.3333333333333 163.6666666666668A41.66666666666666 41.66666666666666 0 0 0 375 205.3333333333334H625A41.66666666666666 41.66666666666666 0 1 0 625 122H375A41.66666666666666 41.66666666666666 0 0 0 333.3333333333333 163.6666666666668z" />
    <glyph glyph-name="download"
      unicode="&#xF147;"
      horiz-adv-x="1000" d=" M500 788.6666666666666A41.66666666666666 41.66666666666666 0 0 0 541.6666666666666 747V305.9166666666668L637.2083333333333 401.4583333333334A41.66666666666666 41.66666666666666 0 0 0 696.125 342.5416666666668L529.4583333333334 175.875A41.66666666666666 41.66666666666666 0 0 0 470.5416666666667 175.875L303.875 342.5416666666667A41.66666666666666 41.66666666666666 0 1 0 362.7916666666667 401.4583333333333L458.3333333333333 305.9166666666668V747A41.66666666666666 41.66666666666666 0 0 0 500 788.6666666666666zM208.3333333333333 163.6666666666668A41.66666666666666 41.66666666666666 0 0 0 250 122V38.6666666666667H750V122A41.66666666666666 41.66666666666666 0 1 0 833.3333333333333 122V38.6666666666667A83.33333333333331 83.33333333333331 0 0 0 750 -44.6666666666666H250A83.33333333333331 83.33333333333331 0 0 0 166.6666666666667 38.6666666666667V122A41.66666666666666 41.66666666666666 0 0 0 208.3333333333333 163.6666666666668z" />
    <glyph glyph-name="drag"
      unicode="&#xF148;"
      horiz-adv-x="1000" d=" M166.6666666666667 622A41.66666666666666 41.66666666666666 0 0 0 208.3333333333333 663.6666666666667H791.6666666666666A41.66666666666666 41.66666666666666 0 1 0 791.6666666666666 580.3333333333334H208.3333333333333A41.66666666666666 41.66666666666666 0 0 0 166.6666666666667 622zM166.6666666666667 455.3333333333334A41.66666666666666 41.66666666666666 0 0 0 208.3333333333333 497H791.6666666666666A41.66666666666666 41.66666666666666 0 1 0 791.6666666666666 413.6666666666667H208.3333333333333A41.66666666666666 41.66666666666666 0 0 0 166.6666666666667 455.3333333333334zM166.6666666666667 288.6666666666668A41.66666666666666 41.66666666666666 0 0 0 208.3333333333333 330.3333333333334H791.6666666666666A41.66666666666666 41.66666666666666 0 1 0 791.6666666666666 247H208.3333333333333A41.66666666666666 41.66666666666666 0 0 0 166.6666666666667 288.6666666666668zM166.6666666666667 122A41.66666666666666 41.66666666666666 0 0 0 208.3333333333333 163.6666666666668H791.6666666666666A41.66666666666666 41.66666666666666 0 1 0 791.6666666666666 80.3333333333334H208.3333333333333A41.66666666666666 41.66666666666666 0 0 0 166.6666666666667 122z" />
    <glyph glyph-name="drop"
      unicode="&#xF149;"
      horiz-adv-x="1000" d=" M527.0833333333334 778.6666666666666A41.66666666666666 41.66666666666666 0 0 1 472.875 778.625L469.1666666666666 775.4166666666666A1311.958333333333 1311.958333333333 0 0 1 425.2916666666667 734.5A1427.4999999999995 1427.4999999999995 0 0 1 322 622.4166666666667C284.4166666666667 576.8333333333333 246.0416666666667 523.5416666666667 216.9166666666667 467.3333333333334C187.9583333333333 411.5000000000001 166.6666666666667 350 166.6666666666667 288.6666666666668A333.33333333333326 333.33333333333326 0 1 1 833.3333333333333 288.6666666666668C833.3333333333333 350 812.0416666666666 411.5000000000001 783.0833333333333 467.3333333333334C753.9166666666666 523.5833333333334 715.5833333333333 576.8333333333334 678 622.4583333333334A1427.4166666666667 1427.4166666666667 0 0 1 540.5416666666667 766.7083333333334L527.1250000000001 778.625zM250 288.6666666666668C250 331.5 265.1666666666667 379.375 290.875 429.0000000000001C316.4583333333333 478.2500000000001 351 526.5416666666667 386.2916666666667 569.4583333333334A1343.7499999999998 1343.7499999999998 0 0 0 500 690.75A1343.9583333333335 1343.9583333333335 0 0 0 613.6666666666666 569.5416666666667C649 526.625 683.5416666666666 478.2916666666667 709.0833333333334 429.0416666666667C734.8333333333333 379.4166666666667 750 331.5416666666668 750 288.7083333333334A250 250 0 0 0 250 288.7083333333334z M348.3333333333333 286.9166666666668A41.66666666666666 41.66666666666666 0 0 1 320.25 235.125A187.83333333333334 187.83333333333334 0 0 1 446.4583333333333 108.9166666666667A41.66666666666666 41.66666666666666 0 1 1 470.2083333333333 188.7916666666668A104.49999999999999 104.49999999999999 0 0 0 400.125 258.8750000000001A41.66666666666666 41.66666666666666 0 0 1 348.3333333333333 286.9166666666668z" />
    <glyph glyph-name="edit-alt"
      unicode="&#xF14A;"
      horiz-adv-x="1000" d=" M678.8749999999999 734.7916666666666A41.66666666666666 41.66666666666666 0 0 0 737.7916666666666 734.7916666666666L862.7916666666666 609.7916666666667A41.66666666666666 41.66666666666666 0 0 0 862.7916666666666 550.875L487.7916666666667 175.875A41.66666666666666 41.66666666666666 0 0 0 458.3333333333333 163.6666666666668H333.3333333333333A41.66666666666666 41.66666666666666 0 0 0 291.6666666666667 205.3333333333334V330.3333333333334A41.66666666666666 41.66666666666666 0 0 0 303.875 359.7916666666668L678.8749999999999 734.7916666666667zM375 313.0833333333334V247H441.0833333333333L774.4166666666665 580.3333333333334L708.3333333333333 646.4166666666667L375 313.0833333333334zM125 580.3333333333334A83.33333333333331 83.33333333333331 0 0 0 208.3333333333333 663.6666666666667H416.6666666666667A41.66666666666666 41.66666666666666 0 1 0 416.6666666666667 580.3333333333334H208.3333333333333V80.3333333333334H708.3333333333333V288.6666666666668A41.66666666666666 41.66666666666666 0 1 0 791.6666666666666 288.6666666666668V80.3333333333334A83.33333333333331 83.33333333333331 0 0 0 708.3333333333333 -3H208.3333333333333A83.33333333333331 83.33333333333331 0 0 0 125 80.3333333333334V580.3333333333334z" />
    <glyph glyph-name="edit"
      unicode="&#xF14B;"
      horiz-adv-x="1000" d=" M678.8749999999999 776.4583333333334A41.66666666666666 41.66666666666666 0 0 0 737.7916666666666 776.4583333333334L904.4583333333331 609.7916666666667A41.66666666666666 41.66666666666666 0 0 0 904.4583333333331 550.875L362.7916666666667 9.2083333333334A41.66666666666666 41.66666666666666 0 0 0 333.3333333333333 -3H166.6666666666667A41.66666666666666 41.66666666666666 0 0 0 125 38.6666666666667V205.3333333333334A41.66666666666666 41.66666666666666 0 0 0 137.2083333333334 234.7916666666668L553.8749999999999 651.4583333333334L678.8749999999999 776.4583333333334zM583.3333333333333 563.0833333333334L208.3333333333333 188.0833333333333V80.3333333333334H316.0833333333333L691.0833333333333 455.3333333333334L583.3333333333333 563.0833333333334zM750 514.25L816.0833333333333 580.3333333333334L708.3333333333333 688.0833333333334L642.25 622L750 514.25z" />
    <glyph glyph-name="email"
      unicode="&#xF14C;"
      horiz-adv-x="1000" d=" M83.3333333333333 622A83.33333333333331 83.33333333333331 0 0 0 166.6666666666667 705.3333333333334H833.3333333333333A83.33333333333331 83.33333333333331 0 0 0 916.6666666666666 622V122A83.33333333333331 83.33333333333331 0 0 0 833.3333333333333 38.6666666666667H166.6666666666667A83.33333333333331 83.33333333333331 0 0 0 83.3333333333333 122V622zM229.9583333333333 622L500 385.7083333333334L770.0416666666667 622H230zM833.3333333333333 566.625L527.4583333333333 298.9583333333334A41.66666666666666 41.66666666666666 0 0 0 472.5416666666666 298.9583333333334L166.6666666666667 566.625V122H833.3333333333333V566.625z" />
    <glyph glyph-name="enter"
      unicode="&#xF14D;"
      horiz-adv-x="1000" d=" M125 288.6666666666668A41.66666666666666 41.66666666666666 0 0 0 166.6666666666667 330.3333333333334H666.6666666666666A125 125 0 0 1 791.6666666666666 455.3333333333334V622A41.66666666666666 41.66666666666666 0 1 0 875 622V455.3333333333334A208.33333333333334 208.33333333333334 0 0 0 666.6666666666666 247H166.6666666666667A41.66666666666666 41.66666666666666 0 0 0 125 288.6666666666668z M137.2083333333334 259.2083333333334A41.66666666666666 41.66666666666666 0 0 0 137.2083333333334 318.125L303.875 484.7916666666666A41.66666666666666 41.66666666666666 0 0 0 362.7916666666667 425.875L225.5833333333333 288.6666666666668L362.7916666666667 151.4583333333334A41.66666666666666 41.66666666666666 0 1 0 303.875 92.5416666666666L137.2083333333334 259.2083333333334z" />
    <glyph glyph-name="expand"
      unicode="&#xF14E;"
      horiz-adv-x="1000" d=" M708.3333333333333 788.6666666666666A41.66666666666666 41.66666666666666 0 1 1 708.3333333333333 705.3333333333334H774.4166666666665L595.5416666666666 526.4583333333334A41.66666666666666 41.66666666666666 0 0 1 654.4583333333333 467.5416666666667L833.3333333333333 646.4166666666667V580.3333333333334A41.66666666666666 41.66666666666666 0 1 1 916.6666666666666 580.3333333333334V747A41.66666666666666 41.66666666666666 0 0 1 875 788.6666666666666H708.3333333333333zM166.6666666666667 97.5833333333335V163.6666666666668A41.66666666666666 41.66666666666666 0 1 1 83.3333333333333 163.6666666666668V-3A41.66666666666666 41.66666666666666 0 0 1 125 -44.6666666666666H291.6666666666667A41.66666666666666 41.66666666666666 0 1 1 291.6666666666667 38.6666666666667H225.5833333333333L404.4583333333333 217.5416666666666A41.66666666666666 41.66666666666666 0 0 1 345.5416666666667 276.4583333333334L166.6666666666667 97.5833333333335z" />
    <glyph glyph-name="export"
      unicode="&#xF14F;"
      horiz-adv-x="1000" d=" M470.5416666666666 776.4583333333334A41.66666666666666 41.66666666666666 0 0 0 529.4583333333333 776.4583333333334L696.125 609.7916666666667A41.66666666666666 41.66666666666666 0 0 0 637.2083333333334 550.875L541.6666666666666 646.4166666666667V205.3333333333334A41.66666666666666 41.66666666666666 0 1 0 458.3333333333333 205.3333333333334V646.4166666666667L362.7916666666667 550.875A41.66666666666666 41.66666666666666 0 0 0 303.875 609.7916666666667L470.5416666666667 776.4583333333334zM208.3333333333333 163.6666666666668A41.66666666666666 41.66666666666666 0 0 0 250 122V38.6666666666667H750V122A41.66666666666666 41.66666666666666 0 1 0 833.3333333333333 122V38.6666666666667A83.33333333333331 83.33333333333331 0 0 0 750 -44.6666666666666H250A83.33333333333331 83.33333333333331 0 0 0 166.6666666666667 38.6666666666667V122A41.66666666666666 41.66666666666666 0 0 0 208.3333333333333 163.6666666666668z" />
    <glyph glyph-name="external-link"
      unicode="&#xF150;"
      horiz-adv-x="1000" d=" M583.3333333333333 663.6666666666667A41.66666666666666 41.66666666666666 0 1 0 583.3333333333333 747H833.3333333333333A41.66666666666666 41.66666666666666 0 0 0 875 705.3333333333334V455.3333333333334A41.66666666666666 41.66666666666666 0 1 0 791.6666666666666 455.3333333333334V604.75L404.4583333333333 217.5416666666668A41.66666666666666 41.66666666666666 0 0 0 345.5416666666667 276.4583333333334L732.7499999999999 663.6666666666667H583.3333333333333zM125 580.3333333333334A83.33333333333331 83.33333333333331 0 0 0 208.3333333333333 663.6666666666667H416.6666666666667A41.66666666666666 41.66666666666666 0 1 0 416.6666666666667 580.3333333333334H208.3333333333333V80.3333333333334H708.3333333333333V288.6666666666668A41.66666666666666 41.66666666666666 0 1 0 791.6666666666666 288.6666666666668V80.3333333333334A83.33333333333331 83.33333333333331 0 0 0 708.3333333333333 -3H208.3333333333333A83.33333333333331 83.33333333333331 0 0 0 125 80.3333333333334V580.3333333333334z" />
    <glyph glyph-name="eye-off"
      unicode="&#xF151;"
      horiz-adv-x="1000" d=" M196.125 734.7916666666666A41.66666666666666 41.66666666666666 0 0 1 137.2083333333334 675.875L238.2083333333334 574.875C178.625 530.0416666666666 126.625 468.4583333333333 87.75 390.625A41.66666666666666 41.66666666666666 0 0 1 87.75 353.375C177.6666666666667 173.5000000000001 337.3333333333333 80.3333333333334 500 80.3333333333334C564.7916666666666 80.3333333333334 629.1666666666666 95.1250000000001 688.75 124.2916666666668L803.8749999999999 9.2083333333334A41.66666666666666 41.66666666666666 0 0 1 862.7916666666666 68.1250000000001L196.125 734.7916666666667zM625.5833333333333 187.5C584.7499999999999 171.5416666666668 542.2499999999999 163.6666666666668 500 163.6666666666668C376.2916666666667 163.6666666666668 249.9166666666667 231.1666666666668 172.0833333333333 372C206.125 433.625 249.5 481.1666666666667 297.8333333333333 515.2083333333333L387.1666666666667 425.875A125 125 0 0 1 553.8749999999999 259.1666666666667L625.5416666666666 187.5zM772.9999999999999 293C793.125 316.1666666666668 811.5833333333333 342.4583333333333 827.9166666666666 372C750.0833333333334 512.8333333333333 623.75 580.3333333333334 500 580.3333333333334C495.3333333333333 580.3333333333334 490.6666666666666 580.25 485.9999999999999 580.0416666666667L411.625 654.375A425.625 425.625 0 0 0 500 663.6666666666667C662.625 663.6666666666667 822.3333333333333 570.5 912.2499999999998 390.625A41.66666666666666 41.66666666666666 0 0 0 912.2499999999998 353.375A546.0833333333333 546.0833333333333 0 0 0 832.0416666666665 234L772.9999999999998 293z" />
    <glyph glyph-name="eye"
      unicode="&#xF152;"
      horiz-adv-x="1000" d=" M625 372A125 125 0 1 0 375 372A125 125 0 0 0 625 372z M912.2499999999998 390.625C822.3333333333333 570.5 662.6666666666666 663.6666666666667 500 663.6666666666667C337.375 663.6666666666667 177.6666666666667 570.5 87.75 390.625A41.66666666666666 41.66666666666666 0 0 1 87.75 353.375C177.6666666666667 173.5000000000001 337.3333333333333 80.3333333333334 500 80.3333333333334C662.625 80.3333333333334 822.3333333333333 173.5000000000001 912.2499999999998 353.3750000000001A41.66666666666666 41.66666666666666 0 0 1 912.2499999999998 390.6250000000001zM500 163.6666666666668C376.2916666666667 163.6666666666668 249.9166666666667 231.1666666666668 172.0833333333333 372C249.9166666666667 512.8333333333334 376.25 580.3333333333334 500 580.3333333333334C623.7083333333333 580.3333333333334 750.0833333333333 512.8333333333333 827.9166666666666 372C750.0833333333334 231.1666666666668 623.7083333333334 163.6666666666668 500 163.6666666666668z" />
    <glyph glyph-name="favorite"
      unicode="&#xF153;"
      horiz-adv-x="1000" d=" M500 767.8333333333334A41.66666666666666 41.66666666666666 0 0 0 537.25 744.7916666666666L644.75 529.875L880.9999999999999 495.5416666666667A41.66666666666666 41.66666666666666 0 0 0 904.0833333333331 424.4583333333334L732.1249999999999 256.7916666666667L770.7916666666666 20.375A41.66666666666666 41.66666666666666 0 0 0 710.1666666666665 -23.125L500 88.3750000000001L289.8333333333333 -23.1249999999998A41.66666666666666 41.66666666666666 0 0 0 229.2083333333334 20.3750000000002L267.875 256.7916666666669L95.9166666666667 424.4583333333336A41.66666666666666 41.66666666666666 0 0 0 119 495.5416666666669L355.25 529.8750000000002L462.7499999999999 744.7916666666669A41.66666666666666 41.66666666666666 0 0 0 500 767.8333333333334zM500 633L420.0833333333333 473.1666666666666A41.66666666666666 41.66666666666666 0 0 0 388.8333333333333 450.5416666666667L214.5 425.2083333333333L341.5833333333333 301.3333333333333A41.66666666666666 41.66666666666666 0 0 0 353.625 264.75L325 89.875L480.4583333333333 172.375A41.66666666666666 41.66666666666666 0 0 0 519.5416666666666 172.375L674.9999999999999 89.875L646.375 264.75A41.66666666666666 41.66666666666666 0 0 0 658.4166666666666 301.2916666666667L785.5 425.2083333333333L611.2083333333334 450.5416666666667A41.66666666666666 41.66666666666666 0 0 0 579.9583333333334 473.1666666666666L500 633z" />
    <glyph glyph-name="filter-1"
      unicode="&#xF154;"
      horiz-adv-x="1000" d=" M166.6666666666667 580.3333333333334A41.66666666666666 41.66666666666666 0 0 0 208.3333333333333 622H791.6666666666666A41.66666666666666 41.66666666666666 0 1 0 791.6666666666666 538.6666666666667H208.3333333333333A41.66666666666666 41.66666666666666 0 0 0 166.6666666666667 580.3333333333334zM250 372A41.66666666666666 41.66666666666666 0 0 0 291.6666666666667 413.6666666666667H708.3333333333333A41.66666666666666 41.66666666666666 0 1 0 708.3333333333333 330.3333333333334H291.6666666666667A41.66666666666666 41.66666666666666 0 0 0 250 372zM333.3333333333333 163.6666666666668A41.66666666666666 41.66666666666666 0 0 0 375 205.3333333333334H625A41.66666666666666 41.66666666666666 0 1 0 625 122H375A41.66666666666666 41.66666666666666 0 0 0 333.3333333333333 163.6666666666668z" />
    <glyph glyph-name="filter-alt"
      unicode="&#xF155;"
      horiz-adv-x="1000" d=" M166.6666666666667 580.3333333333334A41.66666666666666 41.66666666666666 0 0 0 208.3333333333333 622H791.6666666666666A41.66666666666666 41.66666666666666 0 1 0 791.6666666666666 538.6666666666667H208.3333333333333A41.66666666666666 41.66666666666666 0 0 0 166.6666666666667 580.3333333333334zM250 372A41.66666666666666 41.66666666666666 0 0 0 291.6666666666667 413.6666666666667H708.3333333333333A41.66666666666666 41.66666666666666 0 1 0 708.3333333333333 330.3333333333334H291.6666666666667A41.66666666666666 41.66666666666666 0 0 0 250 372zM333.3333333333333 163.6666666666668A41.66666666666666 41.66666666666666 0 0 0 375 205.3333333333334H625A41.66666666666666 41.66666666666666 0 1 0 625 122H375A41.66666666666666 41.66666666666666 0 0 0 333.3333333333333 163.6666666666668z" />
    <glyph glyph-name="filter"
      unicode="&#xF156;"
      horiz-adv-x="1000" d=" M375 663.6666666666667A41.66666666666666 41.66666666666666 0 1 1 375 580.3333333333334A41.66666666666666 41.66666666666666 0 0 1 375 663.6666666666667zM257.0833333333333 663.6666666666667A125.04166666666667 125.04166666666667 0 0 0 492.9166666666666 663.6666666666667H791.6666666666666A41.66666666666666 41.66666666666666 0 1 0 791.6666666666666 580.3333333333334H492.9166666666666A125.04166666666667 125.04166666666667 0 0 0 257.0833333333333 580.3333333333334H208.3333333333333A41.66666666666666 41.66666666666666 0 0 0 208.3333333333333 663.6666666666667H257.0833333333333zM625 413.6666666666667A41.66666666666666 41.66666666666666 0 1 1 625 330.3333333333334A41.66666666666666 41.66666666666666 0 0 1 625 413.6666666666667zM507.0833333333333 413.6666666666667A125.04166666666667 125.04166666666667 0 0 0 742.9166666666665 413.6666666666667H791.6666666666666A41.66666666666666 41.66666666666666 0 1 0 791.6666666666666 330.3333333333334H742.9166666666665A125.04166666666667 125.04166666666667 0 0 0 507.0833333333332 330.3333333333334H208.3333333333333A41.66666666666666 41.66666666666666 0 1 0 208.3333333333333 413.6666666666667H507.0833333333333zM375 163.6666666666668A41.66666666666666 41.66666666666666 0 1 1 375 80.3333333333334A41.66666666666666 41.66666666666666 0 0 1 375 163.6666666666668zM257.0833333333333 163.6666666666668A125.04166666666667 125.04166666666667 0 0 0 492.9166666666666 163.6666666666668H791.6666666666666A41.66666666666666 41.66666666666666 0 1 0 791.6666666666666 80.3333333333334H492.9166666666666A125.04166666666667 125.04166666666667 0 0 0 257.0833333333333 80.3333333333334H208.3333333333333A41.66666666666666 41.66666666666666 0 1 0 208.3333333333333 163.6666666666668H257.0833333333333z" />
    <glyph glyph-name="flag"
      unicode="&#xF157;"
      horiz-adv-x="1000" d=" M208.3333333333333 672.125C271.5416666666667 685.125 319.5833333333333 685.875 359.4166666666667 680.9166666666667C406.0416666666667 675.0833333333334 443.4999999999999 661.2083333333334 485.3749999999999 645.5L486.6249999999999 645C527.7499999999999 629.5833333333334 573.2916666666666 612.5 630.2499999999999 605.4166666666667C676.2499999999999 599.625 728.3749999999999 600.5 791.6666666666665 612V238.5416666666669C728.4583333333331 225.5416666666669 680.4166666666665 224.7916666666669 640.5833333333331 229.7500000000001C593.9583333333331 235.5833333333335 556.4999999999999 249.4583333333335 514.6249999999999 265.1666666666668L513.3749999999999 265.6666666666668C472.2499999999999 281.0833333333334 426.7083333333332 298.1666666666668 369.75 305.2500000000001C323.75 311.0416666666668 271.625 310.1666666666668 208.3333333333333 298.6666666666668V672.125zM823.2499999999999 704.0833333333334C744.0833333333333 684.2916666666667 686.7916666666666 682.2916666666667 640.5833333333333 688.0833333333334C593.9583333333333 693.9166666666667 556.4999999999999 707.7916666666667 514.6249999999999 723.5L513.375 724C472.2499999999999 739.4166666666667 426.7083333333333 756.5 369.75 763.5833333333334C311.9583333333333 770.8333333333334 244.4999999999999 767.6666666666667 157.4166666666666 745.9583333333334A41.66666666666666 41.66666666666666 0 0 1 125 705.3333333333334V-3A41.66666666666666 41.66666666666666 0 1 1 208.3333333333333 -3V213.7916666666666C271.5416666666667 226.7916666666667 319.5833333333333 227.5416666666667 359.4166666666667 222.5833333333334C406.0416666666667 216.75 443.4999999999999 202.875 485.3749999999999 187.1666666666668L486.6249999999999 186.6666666666668C527.7499999999999 171.25 573.2916666666666 154.1666666666666 630.2499999999999 147.0833333333334C688.2083333333331 139.8333333333334 755.9583333333331 143.0416666666666 843.4583333333333 164.9166666666668A41.66666666666666 41.66666666666666 0 0 1 875 205.3333333333334V663.6666666666667A41.66666666666666 41.66666666666666 0 0 1 823.2499999999999 704.0833333333334z" />
    <glyph glyph-name="fog"
      unicode="&#xF158;"
      horiz-adv-x="1000" d=" M458.3333333333333 622A41.66666666666666 41.66666666666666 0 0 0 500 663.6666666666667H875A41.66666666666666 41.66666666666666 0 1 0 875 580.3333333333334H500A41.66666666666666 41.66666666666666 0 0 0 458.3333333333333 622zM83.3333333333333 455.3333333333334A41.66666666666666 41.66666666666666 0 0 0 125 497H583.3333333333333A41.66666666666666 41.66666666666666 0 1 0 583.3333333333333 413.6666666666667H125A41.66666666666666 41.66666666666666 0 0 0 83.3333333333333 455.3333333333334zM208.3333333333333 330.3333333333334A41.66666666666666 41.66666666666666 0 1 1 208.3333333333333 247H583.3333333333333A41.66666666666666 41.66666666666666 0 1 1 583.3333333333333 330.3333333333334H208.3333333333333zM708.3333333333333 330.3333333333334A41.66666666666666 41.66666666666666 0 1 1 708.3333333333333 247H875A41.66666666666666 41.66666666666666 0 1 1 875 330.3333333333334H708.3333333333333zM708.3333333333333 497A41.66666666666666 41.66666666666666 0 1 1 708.3333333333333 413.6666666666667H791.6666666666666A41.66666666666666 41.66666666666666 0 1 1 791.6666666666666 497H708.3333333333333zM291.6666666666667 122A41.66666666666666 41.66666666666666 0 0 0 333.3333333333333 163.6666666666668H791.6666666666666A41.66666666666666 41.66666666666666 0 1 0 791.6666666666666 80.3333333333334H333.3333333333333A41.66666666666666 41.66666666666666 0 0 0 291.6666666666667 122zM125 163.6666666666668A41.66666666666666 41.66666666666666 0 1 1 125 80.3333333333334H208.3333333333333A41.66666666666666 41.66666666666666 0 1 1 208.3333333333333 163.6666666666668H125zM208.3333333333333 663.6666666666667A41.66666666666666 41.66666666666666 0 0 1 208.3333333333333 580.3333333333334H375A41.66666666666666 41.66666666666666 0 0 1 375 663.6666666666667H208.3333333333333z" />
    <glyph glyph-name="folder-add"
      unicode="&#xF159;"
      horiz-adv-x="1000" d=" M83.3333333333333 622A83.33333333333331 83.33333333333331 0 0 0 166.6666666666667 705.3333333333334H375A41.66666666666666 41.66666666666666 0 0 0 404.4583333333333 693.125L475.5833333333333 622H833.3333333333333A83.33333333333331 83.33333333333331 0 0 0 916.6666666666666 538.6666666666667V122A83.33333333333331 83.33333333333331 0 0 0 833.3333333333333 38.6666666666667H166.6666666666667A83.33333333333331 83.33333333333331 0 0 0 83.3333333333333 122V622zM357.75 622H166.6666666666667V122H833.3333333333333V538.6666666666667H458.3333333333333A41.66666666666666 41.66666666666666 0 0 0 428.875 550.875L357.75 622zM500 455.3333333333334A41.66666666666666 41.66666666666666 0 0 0 541.6666666666666 413.6666666666667V372H583.3333333333333A41.66666666666666 41.66666666666666 0 1 0 583.3333333333333 288.6666666666668H541.6666666666666V247A41.66666666666666 41.66666666666666 0 1 0 458.3333333333333 247V288.6666666666668H416.6666666666667A41.66666666666666 41.66666666666666 0 1 0 416.6666666666667 372H458.3333333333333V413.6666666666667A41.66666666666666 41.66666666666666 0 0 0 500 455.3333333333334z" />
    <glyph glyph-name="folder-check"
      unicode="&#xF15A;"
      horiz-adv-x="1000" d=" M83.3333333333333 622A83.33333333333331 83.33333333333331 0 0 0 166.6666666666667 705.3333333333334H375A41.66666666666666 41.66666666666666 0 0 0 404.4583333333333 693.125L475.5833333333333 622H833.3333333333333A83.33333333333331 83.33333333333331 0 0 0 916.6666666666666 538.6666666666667V122A83.33333333333331 83.33333333333331 0 0 0 833.3333333333333 38.6666666666667H166.6666666666667A83.33333333333331 83.33333333333331 0 0 0 83.3333333333333 122V622zM357.75 622H166.6666666666667V122H833.3333333333333V538.6666666666667H458.3333333333333A41.66666666666666 41.66666666666666 0 0 0 428.875 550.875L357.75 622zM654.4583333333334 443.1250000000001A41.66666666666666 41.66666666666666 0 0 0 654.4583333333334 384.2083333333335L487.7916666666667 217.5416666666668A41.66666666666666 41.66666666666666 0 0 0 428.875 217.5416666666668L345.5416666666667 300.8750000000001A41.66666666666666 41.66666666666666 0 1 0 404.4583333333333 359.7916666666668L458.3333333333333 305.9166666666668L595.5416666666666 443.1250000000001A41.66666666666666 41.66666666666666 0 0 0 654.4583333333333 443.1250000000001z" />
    <glyph glyph-name="folder-download"
      unicode="&#xF15B;"
      horiz-adv-x="1000" d=" M83.3333333333333 622A83.33333333333331 83.33333333333331 0 0 0 166.6666666666667 705.3333333333334H375A41.66666666666666 41.66666666666666 0 0 0 404.4583333333333 693.125L475.5833333333333 622H833.3333333333333A83.33333333333331 83.33333333333331 0 0 0 916.6666666666666 538.6666666666667V122A83.33333333333331 83.33333333333331 0 0 0 833.3333333333333 38.6666666666667H166.6666666666667A83.33333333333331 83.33333333333331 0 0 0 83.3333333333333 122V622zM357.75 622H166.6666666666667V122H833.3333333333333V538.6666666666667H458.3333333333333A41.66666666666666 41.66666666666666 0 0 0 428.875 550.875L357.75 622zM500 476.1666666666667A41.66666666666666 41.66666666666666 0 0 0 541.6666666666666 434.5V326.75L553.8749999999999 338.9583333333334A41.66666666666666 41.66666666666666 0 0 0 612.7916666666666 280.0416666666667L529.4583333333333 196.7083333333334A41.66666666666666 41.66666666666666 0 0 0 470.5416666666666 196.7083333333334L387.2083333333333 280.0416666666667A41.66666666666666 41.66666666666666 0 1 0 446.125 338.9583333333334L458.3333333333333 326.75V434.5A41.66666666666666 41.66666666666666 0 0 0 499.9999999999999 476.1666666666667z" />
    <glyph glyph-name="folder-remove"
      unicode="&#xF15C;"
      horiz-adv-x="1000" d=" M83.3333333333333 622A83.33333333333331 83.33333333333331 0 0 0 166.6666666666667 705.3333333333334H375A41.66666666666666 41.66666666666666 0 0 0 404.4583333333333 693.125L475.5833333333333 622H833.3333333333333A83.33333333333331 83.33333333333331 0 0 0 916.6666666666666 538.6666666666667V122A83.33333333333331 83.33333333333331 0 0 0 833.3333333333333 38.6666666666667H166.6666666666667A83.33333333333331 83.33333333333331 0 0 0 83.3333333333333 122V622zM357.75 622H166.6666666666667V122H833.3333333333333V538.6666666666667H458.3333333333333A41.66666666666666 41.66666666666666 0 0 0 428.875 550.875L357.75 622zM375 330.3333333333334A41.66666666666666 41.66666666666666 0 0 0 416.6666666666667 372H583.3333333333333A41.66666666666666 41.66666666666666 0 1 0 583.3333333333333 288.6666666666668H416.6666666666667A41.66666666666666 41.66666666666666 0 0 0 375 330.3333333333334z" />
    </font>
</defs>
</svg>
